[ create a new paste ] login | about

Link: http://codepad.org/2mXGjtgU    [ raw code | fork ]

Plain Text, pasted on Jul 25:
foobar2000 1.3.17 / Dynamic Range Meter 1.1.1
log date: 2018-07-25 09:41:58

--------------------------------------------------------------------------------
Analyzed: Dean Martin / The Dean Martin Christmas Album
--------------------------------------------------------------------------------

DR         Peak         RMS     Duration Track
--------------------------------------------------------------------------------
DR10      -0.19 dB   -13.58 dB      2:56 01-White Christmas
DR10      -0.35 dB   -13.36 dB      2:21 02-Jingle Bells
DR10      -2.19 dB   -15.29 dB      2:31 03-I'll Be Home For Christmas
DR10      -1.35 dB   -14.58 dB      2:17 04-Blue Christmas
DR10      -0.46 dB   -13.60 dB      1:58 05-Let It Snow! Let It Snow! Let It Snow!
DR9       -0.38 dB   -12.10 dB      2:44 06-A Marshmallow World
DR11      -1.01 dB   -14.56 dB      2:25 07-Silver Bells
DR9       -0.23 dB   -12.25 dB      2:11 08-Winter Wonderland
DR10      -0.59 dB   -14.31 dB      2:44 09-The Things We Did Last Summer
DR10      -1.88 dB   -15.90 dB      2:45 10-Silent Night
--------------------------------------------------------------------------------

Number of tracks:  10
Official DR value: DR10

Samplerate:        96000 Hz
Channels:          2
Bits per sample:   24
Bitrate:           2843 kbps
Codec:             FLAC
================================================================================




Create a new paste based on this one


Comments: