[ create a new paste ] login | about

Link: http://codepad.org/2nsEUb3y    [ raw code | fork ]

Plain Text, pasted on Nov 16:
foobar2000 1.3.17 / Dynamic Range Meter 1.1.1
log date: 2018-11-16 10:55:55

--------------------------------------------------------------------------------
Analyzed: The Beatles / The Beatles (2018 Mix)
--------------------------------------------------------------------------------

DR         Peak         RMS     Duration Track
--------------------------------------------------------------------------------
DR10      -8.81 dB   -20.31 dB      2:43 01-Back in the U.S.S.R.
DR10      -9.14 dB   -22.07 dB      3:53 02-Dear Prudence
DR12      -8.62 dB   -22.36 dB      2:17 03-Glass Onion
DR10     -11.99 dB   -23.50 dB      3:08 04-Ob-La-Di, Ob-La-Da
DR14      -8.70 dB   -24.05 dB      0:54 05-Wild Honey Pie
DR12      -7.16 dB   -20.86 dB      3:14 06-The Continuing Story of Bungalow Bill
DR12      -7.62 dB   -21.90 dB      4:48 07-While My Guitar Gently Weeps
DR11      -8.59 dB   -21.04 dB      2:45 08-Happiness is a Warm Gun
DR12      -9.68 dB   -23.78 dB      2:28 09-Martha My Dear
DR12      -9.15 dB   -23.68 dB      2:04 10-I'm So Tired
DR12     -10.94 dB   -26.24 dB      2:18 11-Blackbird
DR9      -10.67 dB   -21.74 dB      2:03 12-Piggies
DR12      -9.55 dB   -24.18 dB      3:33 13-Rocky Raccoon
DR10     -11.65 dB   -23.96 dB      3:44 14-Don't Pass Me By
DR11     -11.30 dB   -23.48 dB      1:42 15-Why Don't We Do It In The Road?
DR10     -12.36 dB   -25.15 dB      1:46 16-I Will
DR10     -12.04 dB   -24.81 dB      2:55 17-Julia
--------------------------------------------------------------------------------

Number of tracks:  17
Official DR value: DR11

Samplerate:        96000 Hz
Channels:          2
Bits per sample:   24
Bitrate:           1149 kbps
Codec:             FLAC
================================================================================


foobar2000 1.3.17 / Dynamic Range Meter 1.1.1
log date: 2018-11-16 10:56:47

--------------------------------------------------------------------------------
Analyzed: The Beatles / The Beatles (2018 Mix)
--------------------------------------------------------------------------------

DR         Peak         RMS     Duration Track
--------------------------------------------------------------------------------
DR10      -5.19 dB   -17.22 dB      2:44 01-Birthday
DR12      -7.06 dB   -21.73 dB      4:12 02-Yer Blues
DR12      -7.91 dB   -22.93 dB      2:47 03-Mother Nature's Son
DR11      -5.71 dB   -17.86 dB      2:25 04-Everybody's Got Something to Hide Except Me and My Monkey
DR11      -7.38 dB   -19.17 dB      3:15 05-Sexy Sadie
DR10      -7.01 dB   -18.44 dB      3:39 06-Helter Skelter
DR11      -5.89 dB   -20.58 dB      3:05 07-Long, Long, Long
DR9       -8.55 dB   -19.84 dB      4:15 08-Revolution 1
DR11      -7.88 dB   -21.14 dB      2:40 09-Honey Pie
DR11      -5.69 dB   -18.50 dB      2:54 10-Savoy Truffle
DR12      -6.81 dB   -21.94 dB      3:00 11-Cry Baby Cry
DR9       -7.84 dB   -21.13 dB      8:24 12-Revolution 9
DR9      -10.73 dB   -21.25 dB      3:13 13-Good Night
--------------------------------------------------------------------------------

Number of tracks:  13
Official DR value: DR11

Samplerate:        96000 Hz
Channels:          2
Bits per sample:   24
Bitrate:           1223 kbps
Codec:             FLAC
================================================================================




Create a new paste based on this one


Comments: