[ create a new paste ] login | about

Link: http://codepad.org/2pJIMaeR    [ raw code | fork ]

Plain Text, pasted on Mar 10:
[CUETools log; Date: 3/10/2018 8:20:31 AM; Version: 2.1.5]
[CTDB TOCID: TbNxlnhsjtHmZr1DsOWlV6sDM14-] found.
Track | CTDB Status
  1   | (8/8) Accurately ripped
  2   | (8/8) Accurately ripped
  3   | (8/8) Accurately ripped
  4   | (8/8) Accurately ripped
  5   | (8/8) Accurately ripped
  6   | (8/8) Accurately ripped
  7   | (8/8) Accurately ripped
  8   | (8/8) Accurately ripped
  9   | (8/8) Accurately ripped
 10   | (8/8) Accurately ripped
 11   | (8/8) Accurately ripped
 12   | (8/8) Accurately ripped
 13   | (8/8) Accurately ripped
 14   | (8/8) Accurately ripped
 15   | (8/8) Accurately ripped
 16   | (8/8) Accurately ripped
 17   | (8/8) Accurately ripped
 18   | (8/8) Accurately ripped
 19   | (8/8) Accurately ripped
 20   | (8/8) Accurately ripped
[AccurateRip ID: 00329502-02e744fb-0d11fc14] found.
Track   [  CRC   |   V2   ] Status
 01     [5d1b7f6d|acf750ac] (0+0/6) No match
 02     [8478b7d6|aa04d663] (0+0/6) No match
 03     [9a4c3771|30d96b21] (0+0/6) No match
 04     [4f515bd2|3b65e09e] (0+0/6) No match
 05     [73c7e91a|1628f308] (0+0/6) No match
 06     [1e17b154|bbcdc78a] (0+0/6) No match
 07     [c5201f28|d927b9ec] (0+0/6) No match
 08     [48b99c1d|847694cc] (0+0/6) No match
 09     [5b88b5a7|1ea0902b] (0+0/6) No match
 10     [9ae77c65|94ec6be1] (0+0/6) No match
 11     [e317b29f|ed5315c0] (0+0/6) No match
 12     [ce8b6cfa|b8fd440d] (0+0/6) No match
 13     [ade198a4|337b6fcc] (0+0/6) No match
 14     [994efab6|33321e21] (0+0/6) No match
 15     [ccdcf061|70c949cd] (0+0/6) No match
 16     [e8e794d3|c0ac419b] (0+0/6) No match
 17     [09220ac5|6935faf0] (0+0/6) No match
 18     [051ed967|e733fcf2] (0+0/6) No match
 19     [4e7d69a0|a092c017] (0+0/6) No match
 20     [01145981|b2b277df] (0+0/6) No match
Offsetted by -96:
 01     [b51e31ad] (0/6) No match (V2 was not tested)
 02     [c1afbc16] (0/6) No match (V2 was not tested)
 03     [17c85671] (0/6) No match (V2 was not tested)
 04     [5d7474b2] (0/6) No match (V2 was not tested)
 05     [9e2749ba] (0/6) No match (V2 was not tested)
 06     [af81c9d4] (0/6) No match (V2 was not tested)
 07     [0f41c768] (0/6) No match (V2 was not tested)
 08     [fb3808dd] (0/6) No match (V2 was not tested)
 09     [9b233b47] (0/6) No match (V2 was not tested)
 10     [9b211245] (0/6) No match (V2 was not tested)
 11     [842f7eff] (0/6) No match (V2 was not tested)
 12     [08186cfa] (0/6) No match (V2 was not tested)
 13     [90451284] (0/6) No match (V2 was not tested)
 14     [7dca9dd6] (0/6) No match (V2 was not tested)
 15     [97453561] (0/6) No match (V2 was not tested)
 16     [a1833433] (0/6) No match (V2 was not tested)
 17     [13073565] (0/6) No match (V2 was not tested)
 18     [e9138be7] (0/6) No match (V2 was not tested)
 19     [b179e300] (0/6) No match (V2 was not tested)
 20     [e89f0a81] (0/6) No match (V2 was not tested)

Track Peak [ CRC32  ] [W/O NULL] [  LOG   ]
 --   96.6 [74E97B0C] [F82EB981]           
 01   96.6 [E787D658] [DA35C193]   CRC32   
 02   96.6 [45E4E7B2] [CBAC0E4E]   CRC32   
 03   96.6 [95BD1163] [9DF051AF]   CRC32   
 04   96.6 [DA248300] [5E10DA00]   CRC32   
 05   96.2 [1C22A164] [82E75FB6]   CRC32   
 06   96.6 [9A5CEB32] [45F43D11]   CRC32   
 07   96.6 [2D2C07B8] [66CA4FD0]   CRC32   
 08   85.3 [223EA1AC] [08F54FFF]   CRC32   
 09   96.6 [408BCA3C] [15630357]   CRC32   
 10   86.9 [60F00794] [FD5F0DC8]   CRC32   
 11   96.6 [9408065F] [DD9350DA]   CRC32   
 12   96.6 [DDBF3650] [1CF10376]   CRC32   
 13   96.6 [91F72E33] [B74DF0BF]   CRC32   
 14   96.6 [595E578D] [D516B1C0]   CRC32   
 15   89.9 [16D87C01] [F9905397]   CRC32   
 16   96.6 [1C66A9E2] [870B1BE3]   CRC32   
 17   96.6 [12FA36A5] [2D73AAC6]   CRC32   
 18   96.6 [33B85DE4] [FB62FE97]   CRC32   
 19   85.8 [526EA203] [7FA0AB5B]   CRC32   
 20   96.6 [9C56488C] [81803483]   CRC32   



Create a new paste based on this one


Comments: