[ create a new paste ] login | about

Link: http://codepad.org/2pLCWy0o    [ raw code | fork ]

Plain Text, pasted on Sep 6:
Exact Audio Copy V1.0 beta 3 from 29. August 2011

EAC extraction logfile from 4. December 2016, 1:28

XTC / Oranges & Lemons

Used drive  : ATAPI   iHBS212   2   Adapter: 3  ID: 0

Read mode               : Secure
Utilize accurate stream : Yes
Defeat audio cache      : Yes
Make use of C2 pointers : No

Read offset correction                      : 6
Overread into Lead-In and Lead-Out          : No
Fill up missing offset samples with silence : Yes
Delete leading and trailing silent blocks   : No
Null samples used in CRC calculations       : Yes
Used interface                              : Native Win32 interface for Win NT & 2000
Gap handling                                : Appended to previous track

Used output format              : User Defined Encoder
Selected bitrate                : 128 kBit/s
Quality                         : High
Add ID3 tag                     : No
Command line compressor         : C:\Program Files (x86)\Exact Audio Copy\Flac\flac.exe 
Additional command line options : -8 -V -T "ARTIST=%artist%" -T "TITLE=%title%" -T "ALBUM=%albumtitle%" -T "DATE=%year%" -T "TRACKNUMBER=%tracknr%" -T "TOTALTRACKS=%numtracks%" -T "GENRE=%genre%" -T "ALBUMARTIST=%albumartist%" -T "ALBUM ARTIST=%albumartist%" -T "COMMENT=EAC Secure Mode, Test & Copy, AccurateRip, FLAC -8" %source%


TOC of the extracted CD

     Track |   Start  |  Length  | Start sector | End sector 
    ---------------------------------------------------------
        1  |  0:00.00 |  5:08.00 |         0    |    23099   
        2  |  5:08.00 |  4:00.00 |     23100    |    41099   
        3  |  9:08.00 |  3:42.00 |     41100    |    57749   
        4  | 12:50.00 |  3:36.38 |     57750    |    73987   
        5  | 16:26.38 |  4:18.38 |     73988    |    93375   
        6  | 20:45.01 |  3:28.38 |     93376    |   109013   
        7  | 24:13.39 |  4:38.00 |    109014    |   129863   
        8  | 28:51.39 |  4:14.00 |    129864    |   148913   
        9  | 33:05.39 |  3:28.00 |    148914    |   164513   
       10  | 36:33.39 |  3:20.00 |    164514    |   179513   
       11  | 39:53.39 |  4:52.00 |    179514    |   201413   
       12  | 44:45.39 |  3:52.38 |    201414    |   218851   
       13  | 48:38.02 |  3:56.38 |    218852    |   236589   
       14  | 52:34.40 |  4:08.38 |    236590    |   255227   
       15  | 56:43.03 |  5:08.00 |    255228    |   278327   


Track  1

     Filename C:\Users\Rob\Desktop\Uploads\XTC - Oranges & Lemons (1989) [FLAC] (2015 Steven Wilson Remix CD + Blu Ray)\CD\01 - Garden Of Earthly Delights.wav

     Pre-gap length  0:00:02.00

     Peak level 99.9 %
     Extraction speed 5.4 X
     Track quality 100.0 %
     Test CRC 02B6DDFB
     Copy CRC 02B6DDFB
     Accurately ripped (confidence 20)  [7922E7CE]  (AR v2)
     Copy OK

Track  2

     Filename C:\Users\Rob\Desktop\Uploads\XTC - Oranges & Lemons (1989) [FLAC] (2015 Steven Wilson Remix CD + Blu Ray)\CD\02 - The Mayor Of Simpleton.wav

     Peak level 100.0 %
     Extraction speed 4.9 X
     Track quality 99.9 %
     Test CRC 98585914
     Copy CRC 98585914
     Accurately ripped (confidence 20)  [9BC083E3]  (AR v2)
     Copy OK

Track  3

     Filename C:\Users\Rob\Desktop\Uploads\XTC - Oranges & Lemons (1989) [FLAC] (2015 Steven Wilson Remix CD + Blu Ray)\CD\03 - King For A Day.wav

     Peak level 100.0 %
     Extraction speed 6.3 X
     Track quality 100.0 %
     Test CRC 0C15B359
     Copy CRC 0C15B359
     Accurately ripped (confidence 20)  [8C0DE52F]  (AR v2)
     Copy OK

Track  4

     Filename C:\Users\Rob\Desktop\Uploads\XTC - Oranges & Lemons (1989) [FLAC] (2015 Steven Wilson Remix CD + Blu Ray)\CD\04 - Here Comes President Kill Again.wav

     Peak level 100.0 %
     Extraction speed 6.8 X
     Track quality 100.0 %
     Test CRC 93126D33
     Copy CRC 93126D33
     Accurately ripped (confidence 20)  [69BE7DA1]  (AR v2)
     Copy OK

Track  5

     Filename C:\Users\Rob\Desktop\Uploads\XTC - Oranges & Lemons (1989) [FLAC] (2015 Steven Wilson Remix CD + Blu Ray)\CD\05 - The Loving.wav

     Peak level 100.0 %
     Extraction speed 7.4 X
     Track quality 100.0 %
     Test CRC 6B357BA9
     Copy CRC 6B357BA9
     Accurately ripped (confidence 20)  [9124952A]  (AR v2)
     Copy OK

Track  6

     Filename C:\Users\Rob\Desktop\Uploads\XTC - Oranges & Lemons (1989) [FLAC] (2015 Steven Wilson Remix CD + Blu Ray)\CD\06 - Poor Skeleton Steps Out.wav

     Peak level 100.0 %
     Extraction speed 6.0 X
     Track quality 99.9 %
     Test CRC D9FF40F3
     Copy CRC D9FF40F3
     Accurately ripped (confidence 20)  [C5749BA5]  (AR v2)
     Copy OK

Track  7

     Filename C:\Users\Rob\Desktop\Uploads\XTC - Oranges & Lemons (1989) [FLAC] (2015 Steven Wilson Remix CD + Blu Ray)\CD\07 - One Of The Millions.wav

     Peak level 100.0 %
     Extraction speed 8.3 X
     Track quality 100.0 %
     Test CRC 03CE99B4
     Copy CRC 03CE99B4
     Accurately ripped (confidence 20)  [8F588C55]  (AR v2)
     Copy OK

Track  8

     Filename C:\Users\Rob\Desktop\Uploads\XTC - Oranges & Lemons (1989) [FLAC] (2015 Steven Wilson Remix CD + Blu Ray)\CD\08 - Scarecrow People.wav

     Peak level 100.0 %
     Extraction speed 8.5 X
     Track quality 100.0 %
     Test CRC 776443AD
     Copy CRC 776443AD
     Accurately ripped (confidence 20)  [506DCF64]  (AR v2)
     Copy OK

Track  9

     Filename C:\Users\Rob\Desktop\Uploads\XTC - Oranges & Lemons (1989) [FLAC] (2015 Steven Wilson Remix CD + Blu Ray)\CD\09 - Merely A Man.wav

     Peak level 100.0 %
     Extraction speed 8.6 X
     Track quality 100.0 %
     Test CRC 08CE468A
     Copy CRC 08CE468A
     Accurately ripped (confidence 20)  [F5033EAF]  (AR v2)
     Copy OK

Track 10

     Filename C:\Users\Rob\Desktop\Uploads\XTC - Oranges & Lemons (1989) [FLAC] (2015 Steven Wilson Remix CD + Blu Ray)\CD\10 - Cynical Days.wav

     Peak level 100.0 %
     Extraction speed 8.9 X
     Track quality 100.0 %
     Test CRC C0EE4BC8
     Copy CRC C0EE4BC8
     Accurately ripped (confidence 20)  [E872932E]  (AR v2)
     Copy OK

Track 11

     Filename C:\Users\Rob\Desktop\Uploads\XTC - Oranges & Lemons (1989) [FLAC] (2015 Steven Wilson Remix CD + Blu Ray)\CD\11 - Across This Antheap.wav

     Peak level 100.0 %
     Extraction speed 9.8 X
     Track quality 100.0 %
     Test CRC DB616BDD
     Copy CRC DB616BDD
     Accurately ripped (confidence 20)  [779FFFF7]  (AR v2)
     Copy OK

Track 12

     Filename C:\Users\Rob\Desktop\Uploads\XTC - Oranges & Lemons (1989) [FLAC] (2015 Steven Wilson Remix CD + Blu Ray)\CD\12 - Hold Me My Daddy.wav

     Peak level 100.0 %
     Extraction speed 9.8 X
     Track quality 100.0 %
     Test CRC 80727226
     Copy CRC 80727226
     Accurately ripped (confidence 20)  [B36C0976]  (AR v2)
     Copy OK

Track 13

     Filename C:\Users\Rob\Desktop\Uploads\XTC - Oranges & Lemons (1989) [FLAC] (2015 Steven Wilson Remix CD + Blu Ray)\CD\13 - Pink Thing.wav

     Peak level 100.0 %
     Extraction speed 10.0 X
     Track quality 100.0 %
     Test CRC 4DB6929E
     Copy CRC 4DB6929E
     Accurately ripped (confidence 20)  [CB54C982]  (AR v2)
     Copy OK

Track 14

     Filename C:\Users\Rob\Desktop\Uploads\XTC - Oranges & Lemons (1989) [FLAC] (2015 Steven Wilson Remix CD + Blu Ray)\CD\14 - Miniature Sun.wav

     Peak level 100.0 %
     Extraction speed 10.4 X
     Track quality 100.0 %
     Test CRC D11A1AD8
     Copy CRC D11A1AD8
     Accurately ripped (confidence 20)  [80D5C7AA]  (AR v2)
     Copy OK

Track 15

     Filename C:\Users\Rob\Desktop\Uploads\XTC - Oranges & Lemons (1989) [FLAC] (2015 Steven Wilson Remix CD + Blu Ray)\CD\15 - Chalkhills And Children.wav

     Peak level 99.9 %
     Extraction speed 10.9 X
     Track quality 100.0 %
     Test CRC 02EF5A5A
     Copy CRC 02EF5A5A
     Accurately ripped (confidence 20)  [1FB5E314]  (AR v2)
     Copy OK


All tracks accurately ripped

No errors occurred

End of status report

==== Log checksum 42F20BB7A4F69BF62265C670EE5BBA7892F641F784EA155BF874A6E30CFDD6C6 ====



Create a new paste based on this one


Comments: