[ create a new paste ] login | about

Link: http://codepad.org/2usFUds4    [ raw code | fork ]

Plain Text, pasted on Mar 7:
Exact Audio Copy V1.0 beta 3 from 29. August 2011

EAC extraction logfile from 13. November 2014, 22:55

Rory Gallagher / Irish Tour '74.. CD7 (2014, City Hall In Session, 4 January 1974)

Used drive : ATAPI iHAS124 B Adapter: 1 ID: 0

Read mode : Secure
Utilize accurate stream : Yes
Defeat audio cache : Yes
Make use of C2 pointers : No

Read offset correction : 6
Overread into Lead-In and Lead-Out : No
Fill up missing offset samples with silence : Yes
Delete leading and trailing silent blocks : No
Null samples used in CRC calculations : Yes
Used interface : Installed external ASPI interface

Used output format : User Defined Encoder
Selected bitrate : 128 kBit/s
Quality : High
Add ID3 tag : Yes
Command line compressor : C:\Program Files (x86)\Exact Audio Copy\Flac\flac.exe
Additional command line options : -V -8 -T "Date=%year%" -T "Genre=%genre%" %source%


TOC of the extracted CD

Track | Start | Length | Start sector | End sector
––––––––––––––––––––––––––––-
1 | 0:00.00 | 2:32.31 | 0 | 11430
2 | 2:32.31 | 3:49.61 | 11431 | 28666
3 | 6:22.17 | 4:11.18 | 28667 | 47509
4 | 10:33.35 | 5:58.07 | 47510 | 74366
5 | 16:31.42 | 7:01.07 | 74367 | 105948
6 | 23:32.49 | 8:17.06 | 105949 | 143229
7 | 31:49.55 | 4:07.72 | 143230 | 161826
8 | 35:57.52 | 1:29.07 | 161827 | 168508
9 | 37:26.59 | 6:12.63 | 168509 | 196471
10 | 43:39.47 | 6:32.18 | 196472 | 225889


Range status and errors

Selected range

Filename G:\CD\Rory Gallagher - Irish Tour '74.. CD7.wav

Peak level 97.8 %
Extraction speed 5.7 X
Range quality 100.0 %
Test CRC AB887F20
Copy CRC AB887F20
Copy OK

No errors occurred


AccurateRip summary

Track 1 accurately ripped (confidence 2) [C91BB9DB] (AR v2)
Track 2 accurately ripped (confidence 2) [8BA94E5C] (AR v2)
Track 3 accurately ripped (confidence 2) [8802FC45] (AR v2)
Track 4 accurately ripped (confidence 2) [16E328A2] (AR v2)
Track 5 accurately ripped (confidence 2) [1462D903] (AR v2)
Track 6 accurately ripped (confidence 2) [53E491A6] (AR v2)
Track 7 accurately ripped (confidence 2) [7B22CC40] (AR v2)
Track 8 accurately ripped (confidence 2) [F41BCD8E] (AR v2)
Track 9 accurately ripped (confidence 2) [C953FCF8] (AR v2)
Track 10 accurately ripped (confidence 2) [669DFBDC] (AR v2)

All tracks accurately ripped

End of status report

–– CUETools DB Plugin V2.1.3

[CTDB TOCID: YHRrA_f56NKl.GnVSk..w3XwTqo-] found, Submit result: YHRrA_f56NKl.GnVSk..w3XwTqo- has been confirmed
[44125956] (1/6) No match
[a3c4f9d9] (5/6) Accurately ripped


==== Log checksum AED6E7F2F02F9E320034B78A020006CE778F88AD4C14D6A92A12430E9830EC9D ====


Create a new paste based on this one


Comments: