[ create a new paste ] login | about

Link: http://codepad.org/2ybAV1zm    [ raw code | fork ]

Plain Text, pasted on Dec 14:
Exact Audio Copy V0.99 prebeta 4 from 23. January 2008

EAC extraction logfile from 21. December 2009, 22:48

The Glenn Miller Orchestra / In The Christmas Mood

Used drive  : TSSTcorpCD/DVDW TS-H552L   Adapter: 5  ID: 0

Read mode               : Secure
Utilize accurate stream : Yes
Defeat audio cache      : Yes
Make use of C2 pointers : No

Read offset correction                      : 6
Overread into Lead-In and Lead-Out          : No
Fill up missing offset samples with silence : Yes
Delete leading and trailing silent blocks   : No
Null samples used in CRC calculations       : Yes
Used interface                              : Native Win32 interface for Win NT & 2000
Gap handling                                : Appended to previous track

Used output format              : User Defined Encoder
Selected bitrate                : 128 kBit/s
Quality                         : High
Add ID3 tag                     : No
Command line compressor         : C:\Program Files\Exact Audio Copy\Flac\flac.exe
Additional command line options : -8 -V -T "ARTIST=%a" -T "TITLE=%t" -T "ALBUM=%g" -T "DATE=%y" -T "TRACKNUMBER=%n" -T "GENRE=%m" -T "COMMENT=EAC FLAC -8" %s


TOC of the extracted CD

     Track |   Start  |  Length  | Start sector | End sector 
    ---------------------------------------------------------
        1  |  0:00.00 |  3:48.65 |         0    |    17164   
        2  |  3:48.65 |  5:46.35 |     17165    |    43149   
        3  |  9:35.25 |  3:17.13 |     43150    |    57937   
        4  | 12:52.38 |  2:38.02 |     57938    |    69789   
        5  | 15:30.40 |  4:44.05 |     69790    |    91094   
        6  | 20:14.45 |  4:06.25 |     91095    |   109569   
        7  | 24:20.70 |  3:59.38 |    109570    |   127532   
        8  | 28:20.33 |  5:52.10 |    127533    |   153942   
        9  | 34:12.43 |  3:18.40 |    153943    |   168832   
       10  | 37:31.08 |  2:30.72 |    168833    |   180154   
       11  | 40:02.05 |  3:33.55 |    180155    |   196184   


Track  1

     Filename C:\RIP\01 - Sleigh Ride.wav

     Pre-gap length  0:00:02.00

     Peak level 75.1 %
     Track quality 100.0 %
     Test CRC C6EBC4D7
     Copy CRC C6EBC4D7
     Accurately ripped (confidence 8)  [00F9A929]
     Copy OK

Track  2

     Filename C:\RIP\02 - Yuletide Medley #1- O Holy Night; Joy to the World; O Little Town of Bethlehem; Deck the Halls.wav

     Pre-gap length  0:00:04.26

     Peak level 73.2 %
     Track quality 100.0 %
     Test CRC DD33810C
     Copy CRC DD33810C
     Accurately ripped (confidence 8)  [3BD03B1A]
     Copy OK

Track  3

     Filename C:\RIP\03 - Rudolph, the Red-Nosed Reindeer.wav

     Pre-gap length  0:00:03.86

     Peak level 69.1 %
     Track quality 100.0 %
     Test CRC A2968ABF
     Copy CRC A2968ABF
     Accurately ripped (confidence 8)  [B796C50D]
     Copy OK

Track  4

     Filename C:\RIP\04 - Silver Bells.wav

     Pre-gap length  0:00:03.66

     Peak level 57.9 %
     Track quality 100.0 %
     Test CRC AE7E36D1
     Copy CRC AE7E36D1
     Accurately ripped (confidence 8)  [03055ECB]
     Copy OK

Track  5

     Filename C:\RIP\05 - Jingle Bells.wav

     Pre-gap length  0:00:03.60

     Peak level 73.6 %
     Track quality 100.0 %
     Test CRC 0BB03493
     Copy CRC 0BB03493
     Accurately ripped (confidence 8)  [AF0C54FE]
     Copy OK

Track  6

     Filename C:\RIP\06 - Frosty the Snowman.wav

     Pre-gap length  0:00:04.00

     Peak level 74.5 %
     Track quality 100.0 %
     Test CRC 106D838F
     Copy CRC 106D838F
     Accurately ripped (confidence 8)  [251A8979]
     Copy OK

Track  7

     Filename C:\RIP\07 - Have Yourself a Merry Little Christmas.wav

     Pre-gap length  0:00:04.16

     Peak level 65.0 %
     Track quality 100.0 %
     Test CRC 4F4F0A71
     Copy CRC 4F4F0A71
     Accurately ripped (confidence 8)  [D5D6053B]
     Copy OK

Track  8

     Filename C:\RIP\08 - Yuletide Medley #2- O Christmas Tree; We Three Kings; It Came upon a Midnight Clear; What Child Is This .wav

     Pre-gap length  0:00:04.17

     Peak level 81.1 %
     Track quality 100.0 %
     Test CRC 3FB4C640
     Copy CRC 3FB4C640
     Accurately ripped (confidence 8)  [A6AC2786]
     Copy OK

Track  9

     Filename C:\RIP\09 - I'll Be Home for Christmas.wav

     Pre-gap length  0:00:03.64

     Peak level 67.5 %
     Track quality 100.0 %
     Test CRC C6A44F0B
     Copy CRC C6A44F0B
     Accurately ripped (confidence 8)  [C05412D4]
     Copy OK

Track 10

     Filename C:\RIP\10 - Silent Night.wav

     Pre-gap length  0:00:04.00

     Peak level 51.6 %
     Track quality 100.0 %
     Test CRC D6650AEF
     Copy CRC D6650AEF
     Accurately ripped (confidence 8)  [F059A631]
     Copy OK

Track 11

     Filename C:\RIP\11 - In the Christmas Mood.wav

     Pre-gap length  0:00:03.82

     Peak level 86.4 %
     Track quality 100.0 %
     Test CRC 978194DB
     Copy CRC 978194DB
     Accurately ripped (confidence 8)  [B2B4C742]
     Copy OK


All tracks accurately ripped

No errors occurred

End of status report



Create a new paste based on this one


Comments: