[ create a new paste ] login | about

Link: http://codepad.org/31P0Pz08    [ raw code | fork ]

Plain Text, pasted on Dec 14:
Exact Audio Copy V0.99 prebeta 5 from 4. May 2009

EAC extraction logfile from 26. June 2015, 17:34

ELVIS PRESLEY / The Complete 1954-1962 USA Singles (CD4)

Used drive  : ATAPI   iHAS122   C   Adapter: 1  ID: 1

Read mode               : Secure
Utilize accurate stream : Yes
Defeat audio cache      : Yes
Make use of C2 pointers : No

Read offset correction                      : 6
Overread into Lead-In and Lead-Out          : No
Fill up missing offset samples with silence : Yes
Delete leading and trailing silent blocks   : No
Null samples used in CRC calculations       : Yes
Used interface                              : Native Win32 interface for Win NT & 2000

Used output format : Internal WAV Routines
Sample format      : 44.100 Hz; 16 Bit; Stereo


TOC of the extracted CD

     Track |   Start  |  Length  | Start sector | End sector 
    ---------------------------------------------------------
        1  |  0:00.00 |  3:23.67 |         0    |    15291   
        2  |  3:23.67 |  3:58.33 |     15292    |    33174   
        3  |  7:22.25 |  2:06.55 |     33175    |    42679   
        4  |  9:29.05 |  3:19.53 |     42680    |    57657   
        5  | 12:48.58 |  2:42.05 |     57658    |    69812   
        6  | 15:30.63 |  2:33.35 |     69813    |    81322   
        7  | 18:04.23 |  2:41.59 |     81323    |    93456   
        8  | 20:46.07 |  2:31.08 |     93457    |   104789   
        9  | 23:17.15 |  2:28.35 |    104790    |   115924   
       10  | 25:45.50 |  2:21.55 |    115925    |   126554   
       11  | 28:07.30 |  1:40.20 |    126555    |   134074   
       12  | 29:47.50 |  2:40.47 |    134075    |   146121   
       13  | 32:28.22 |  2:28.20 |    146122    |   157241   
       14  | 34:56.42 |  1:53.06 |    157242    |   165722   
       15  | 36:49.48 |  2:43.55 |    165723    |   178002   
       16  | 39:33.28 |  1:46.54 |    178003    |   186006   
       17  | 41:20.07 |  1:40.57 |    186007    |   193563   
       18  | 43:00.64 |  2:35.50 |    193564    |   205238   
       19  | 45:36.39 |  2:13.06 |    205239    |   215219   
       20  | 47:49.45 |  3:19.48 |    215220    |   230192   
       21  | 51:09.18 |  1:56.74 |    230193    |   238966   
       22  | 53:06.17 |  3:24.72 |    238967    |   254338   
       23  | 56:31.14 |  2:27.65 |    254339    |   265428   
       24  | 58:59.04 |  2:27.54 |    265429    |   276507   
       25  | 61:26.58 |  2:12.17 |    276508    |   286424   


Range status and errors

Selected range

     Filename C:\Users\London\Desktop\ELVIS PRESLEY - The Complete 1954-1962 USA Singles (CD4).wav

     Peak level 99.9 %
     Range quality 100.0 %
     Test CRC CD2A27CF
     Copy CRC CD2A27CF
     Copy OK

No errors occurred

 
AccurateRip summary
 
Track  1  not present in database
Track  2  not present in database
Track  3  not present in database
Track  4  not present in database
Track  5  not present in database
Track  6  not present in database
Track  7  not present in database
Track  8  not present in database
Track  9  not present in database
Track 10  not present in database
Track 11  not present in database
Track 12  not present in database
Track 13  not present in database
Track 14  not present in database
Track 15  not present in database
Track 16  not present in database
Track 17  not present in database
Track 18  not present in database
Track 19  not present in database
Track 20  not present in database
Track 21  not present in database
Track 22  not present in database
Track 23  not present in database
Track 24  not present in database
Track 25  not present in database
 
None of the tracks are present in the AccurateRip database

End of status report



Create a new paste based on this one


Comments: