[ create a new paste ] login | about

Link: http://codepad.org/38yzEq78    [ raw code | fork ]

Plain Text, pasted on May 20:
foobar2000 1.2.8 / Dynamic Range Meter 1.1.1
log date: 2013-11-26 14:14:26

--------------------------------------------------------------------------------
Analyzed: Al Hibbler / The Greatest Songs Of The Fifties (Hybrid SACD - Disc 1) (1)
          Ames Brothers / The Greatest Songs Of The Fifties (Hybrid SACD - Disc 1) (2-3)
          Crew Cuts / The Greatest Songs Of The Fifties (Hybrid SACD - Disc 1) (4)
          Doris Day / The Greatest Songs Of The Fifties (Hybrid SACD - Disc 1) (5)
          Eddie Fisher / The Greatest Songs Of The Fifties (Hybrid SACD - Disc 1) (6)
          Fats Domino / The Greatest Songs Of The Fifties (Hybrid SACD - Disc 1) (7)
          Four Aces / The Greatest Songs Of The Fifties (Hybrid SACD - Disc 1) (8)
          Four Lads / The Greatest Songs Of The Fifties (Hybrid SACD - Disc 1) (9)
          Gogi Grant / The Greatest Songs Of The Fifties (Hybrid SACD - Disc 1) (10)
          Johnnie Ray / The Greatest Songs Of The Fifties (Hybrid SACD - Disc 1) (11)
          Kay Starr / The Greatest Songs Of The Fifties (Hybrid SACD - Disc 1) (12)
          Mario Lanza / The Greatest Songs Of The Fifties (Hybrid SACD - Disc 1) (13)
          McGuire Sisters / The Greatest Songs Of The Fifties (Hybrid SACD - Disc 1) (14)
          Mitch Miller & The Gang / The Greatest Songs Of The Fifties (Hybrid SACD - Disc 1) (15)
          Pat Boone / The Greatest Songs Of The Fifties (Hybrid SACD - Disc 1) (16)
          Patti Page / The Greatest Songs Of The Fifties (Hybrid SACD - Disc 1) (17)
          Perry Como / The Greatest Songs Of The Fifties (Hybrid SACD - Disc 1) (18)
          Rosemary Clooney / The Greatest Songs Of The Fifties (Hybrid SACD - Disc 1) (19)
          Tennessee Ernie Ford / The Greatest Songs Of The Fifties (Hybrid SACD - Disc 1) (20)
          Teresa Brewer / The Greatest Songs Of The Fifties (Hybrid SACD - Disc 1) (21)
          Terry Gilkyson & Easy Riders / The Greatest Songs Of The Fifties (Hybrid SACD - Disc 1) (22)
          The Chordettes / The Greatest Songs Of The Fifties (Hybrid SACD - Disc 1) (23)
          Tommy Edwards / The Greatest Songs Of The Fifties (Hybrid SACD - Disc 1) (24)
          Tony Bennett / The Greatest Songs Of The Fifties (Hybrid SACD - Disc 1) (25)
--------------------------------------------------------------------------------

DR         Peak         RMS     Duration Track
--------------------------------------------------------------------------------
DR12      -0.05 dB   -14.60 dB      2:55 03-Unchained Melody
DR10      -0.07 dB   -12.44 dB      2:51 11-The Naughty Lady
DR9       -0.05 dB   -11.98 dB      2:56 16-You, You, You
DR9       -0.05 dB   -11.27 dB      2:47 08-Sh-Boom
DR11      -0.05 dB   -12.92 dB      2:06 10-Que Sera, Sera
DR9       -0.10 dB   -11.92 dB      3:07 09-Oh My Papa
DR12      -0.05 dB   -13.26 dB      2:22 24-Blueberry Hill
DR9       -0.05 dB   -12.60 dB      3:01 04-Love Is A Many Splendored Thing
DR9       -0.01 dB   -13.58 dB      3:19 01-Moments To Remember
DR10      -0.03 dB   -11.74 dB      2:57 17-The Wayward Wind
DR9       -0.05 dB   -11.03 dB      2:40 25-Just Walking In The Rain
DR10      -0.05 dB   -12.50 dB      2:59 15-Rock And Roll Waltz
DR7       -0.06 dB   -10.32 dB      3:31 13-Be My Love
DR10      -0.05 dB   -12.86 dB      2:59 06-Sincerely
DR11      -0.05 dB   -13.19 dB      3:02 22-Yellow Rose Of Texas
DR13      -0.06 dB   -18.01 dB      2:38 07-I Almost Lost My Mind
DR11      -0.05 dB   -13.28 dB      3:04 14-Tennessee Waltz
DR10      -0.05 dB   -11.66 dB      2:24 20-Hot Diggity
DR11      -0.05 dB   -11.98 dB      2:24 12-This Ole House
DR13      -0.05 dB   -16.51 dB      2:38 18-Sixteen Tons
DR11      -0.05 dB   -12.96 dB      2:53 21-Music, Music, Music
DR10      -0.04 dB   -12.64 dB      2:18 23-Marianne
DR11      -0.05 dB   -14.34 dB      2:26 19-Mister Sandman
DR14      -0.06 dB   -17.05 dB      2:39 02-It's All In The Game
DR11      -0.06 dB   -13.02 dB      2:51 05-Rags To Riches
--------------------------------------------------------------------------------

Number of tracks:  25
Official DR value: DR11

Samplerate:        88200 Hz
Channels:          2
Bits per sample:   24
Bitrate:           2695 kbps
Codec:             FLAC
================================================================================




Create a new paste based on this one


Comments: