[ create a new paste ] login | about

Link: http://codepad.org/3A5D4dsH    [ raw code | fork ]

Plain Text, pasted on Feb 1:
CD1
---

[CUETools log; Date: 2/1/2021 12:32:40 AM; Version: 2.1.7]
Pregap length 00:00:13.
[CTDB TOCID: y8UsQsaJpEZGKQhgdY_wiIXO.mM-] found.
Track | CTDB Status
  1   | (1015/1031) Accurately ripped
  2   | (1020/1031) Accurately ripped, or (2/1031) differs in 39 samples @00:00:12
  3   | (1019/1031) Accurately ripped, or (2/1031) differs in 40 samples @00:00:12
  4   | (1019/1031) Accurately ripped, or (2/1031) differs in 40 samples @00:00:12
  5   | (1019/1031) Accurately ripped, or (2/1031) differs in 40 samples @00:00:12
  6   | (1018/1031) Accurately ripped, or (2/1031) differs in 40 samples @00:00:12
  7   | (1022/1031) Accurately ripped, or (2/1031) differs in 40 samples @00:00:12
  8   | (1020/1031) Accurately ripped, or (2/1031) differs in 40 samples @00:00:12
  9   | (1017/1031) Accurately ripped, or (2/1031) differs in 40 samples @00:00:12
 10   | (1018/1031) Accurately ripped, or (2/1031) differs in 39 samples @00:00:12
 11   | (1018/1031) Accurately ripped, or (2/1031) differs in 40 samples @00:00:12
 12   | (1014/1031) Accurately ripped, or (2/1031) differs in 40 samples @00:00:12
[AccurateRip ID: 001cf5ea-010e313e-940f730c] found.
Track   [  CRC   |   V2   ] Status
 01     [19ad4783|32a2a248] (200+200/704) Accurately ripped
 02     [ea1786aa|9c63ed31] (200+200/707) Accurately ripped
 03     [5dbf0421|716a1994] (200+200/703) Accurately ripped
 04     [684c50bd|3f2bc438] (200+200/707) Accurately ripped
 05     [82ea0b9b|b9fbd3db] (200+200/704) Accurately ripped
 06     [14731b09|1e01fd69] (200+200/704) Accurately ripped
 07     [c92d3331|a851483c] (200+200/706) Accurately ripped
 08     [6fbedc89|38cf7ae3] (200+200/705) Accurately ripped
 09     [dcd562a7|80e9797e] (200+200/708) Accurately ripped
 10     [aca01fb1|cc30af81] (200+200/705) Accurately ripped
 11     [1a1745eb|5de2bf64] (200+200/705) Accurately ripped
 12     [89d1018d|c451acbd] (200+200/703) Accurately ripped
Offsetted by -676:
 01     [fada40b2] (002/704) Accurately ripped
 02     [df5cbab7] (002/707) Accurately ripped
 03     [9d29c9dc] (002/703) Accurately ripped
 04     [b0320abf] (002/707) Accurately ripped
 05     [23eb61e9] (002/704) Accurately ripped
 06     [49833815] (002/704) Accurately ripped
 07     [cc6b5c8c] (002/706) Accurately ripped
 08     [8041aad4] (002/705) Accurately ripped
 09     [6e981046] (002/708) Accurately ripped
 10     [2d712364] (002/705) Accurately ripped
 11     [1a88c80f] (002/705) Accurately ripped
 12     [5b18ae9e] (002/703) Accurately ripped
Offsetted by -12:
 01     [9ba3fbd2] (009/704) Accurately ripped
 02     [32bad86e] (010/707) Accurately ripped
 03     [aae857f8] (009/703) Accurately ripped
 04     [e2f4f3d5] (010/707) Accurately ripped
 05     [8acebb70] (010/704) Accurately ripped
 06     [caff8f13] (009/704) Accurately ripped
 07     [a9251cda] (010/706) Accurately ripped
 08     [a7a892cc] (009/705) Accurately ripped
 09     [6339edee] (010/708) Accurately ripped
 10     [65b00103] (009/705) Accurately ripped
 11     [975513f3] (009/705) Accurately ripped
 12     [c049d96b] (008/703) Accurately ripped
Offsetted by -6:
 01     [fec9d80a] (096/704) Accurately ripped
 02     [3e625b72] (098/707) Accurately ripped
 03     [9848a5dc] (097/703) Accurately ripped
 04     [0e0b2220] (099/707) Accurately ripped
 05     [4d1b5a21] (097/704) Accurately ripped
 06     [bf0906df] (098/704) Accurately ripped
 07     [980f9c83] (098/706) Accurately ripped
 08     [9eec0175] (099/705) Accurately ripped
 09     [a46eb284] (099/708) Accurately ripped
 10     [71d9e306] (097/705) Accurately ripped
 11     [34ba6012] (098/705) Accurately ripped
 12     [6ad1f223] (100/703) Accurately ripped
Offsetted by 6:
 01     [a11ec0e4] (002/704) Accurately ripped
 02     [2d2e75ef] (002/707) Accurately ripped
 03     [f5ca6920] (002/703) Accurately ripped
 04     [a144556a] (002/707) Accurately ripped
 05     [e126f09f] (002/704) Accurately ripped
 06     [2e770c10] (002/704) Accurately ripped
 07     [5af5061e] (002/706) Accurately ripped
 08     [e0cd0247] (002/705) Accurately ripped
 09     [ca85a383] (003/708) Accurately ripped
 10     [eb0a7075] (003/705) Accurately ripped
 11     [cb4f8e7f] (002/705) Accurately ripped
 12     [0c9d06d3] (002/703) Accurately ripped
Offsetted by -667:
 01     [455d59a7] (000/704) No match (V2 was not tested)
 02     [8e846c9c] (000/707) No match (V2 was not tested)
 03     [1af4dd9f] (000/703) No match (V2 was not tested)
 04     [82db17ea] (000/707) No match (V2 was not tested)
 05     [5bf7c0db] (000/704) No match (V2 was not tested)
 06     [22692137] (000/704) No match (V2 was not tested)
 07     [ef8a518a] (000/706) No match (V2 was not tested)
 08     [83061a34] (000/705) No match (V2 was not tested)
 09     [0c7444f2] (000/708) No match (V2 was not tested)
 10     [c127ebbe] (000/705) No match (V2 was not tested)
 11     [cca7c848] (000/705) No match (V2 was not tested)
 12     [a6a9f73e] (000/703) No match (V2 was not tested)
Offsetted by -132:
 01     [b6c36378] (000/704) No match (V2 was not tested)
 02     [05041f46] (000/707) No match (V2 was not tested)
 03     [304d7a64] (000/703) No match (V2 was not tested)
 04     [dabb5d7f] (000/707) No match (V2 was not tested)
 05     [760b74b0] (000/704) No match (V2 was not tested)
 06     [11ab530e] (000/704) No match (V2 was not tested)
 07     [fb80e256] (000/706) No match (V2 was not tested)
 08     [4d83baff] (000/705) No match (V2 was not tested)
 09     [ed21eaf3] (000/708) No match (V2 was not tested)
 10     [6f14c774] (000/705) No match (V2 was not tested)
 11     [26886569] (000/705) No match (V2 was not tested)
 12     [27e782c5] (000/703) No match (V2 was not tested)
Offsetted by -66:
 01     [617d5f8c] (000/704) No match (V2 was not tested)
 02     [9a73d88a] (000/707) No match (V2 was not tested)
 03     [08c11fc2] (000/703) No match (V2 was not tested)
 04     [7c722999] (000/707) No match (V2 was not tested)
 05     [9ff60409] (000/704) No match (V2 was not tested)
 06     [c8c82e34] (000/704) No match (V2 was not tested)
 07     [ea423f04] (000/706) No match (V2 was not tested)
 08     [6d2ea19a] (000/705) No match (V2 was not tested)
 09     [4ed82a6b] (000/708) No match (V2 was not tested)
 10     [1124b7b1] (000/705) No match (V2 was not tested)
 11     [43806cfe] (000/705) No match (V2 was not tested)
 12     [d45aa35d] (000/703) No match (V2 was not tested)
Offsetted by -42:
 01     [ea229829] (000/704) No match (V2 was not tested)
 02     [48607bad] (000/707) No match (V2 was not tested)
 03     [9198e488] (000/703) No match (V2 was not tested)
 04     [e3002e9c] (000/707) No match (V2 was not tested)
 05     [99d7a45b] (000/704) No match (V2 was not tested)
 06     [e322bdc6] (000/704) No match (V2 was not tested)
 07     [f1f74870] (000/706) No match (V2 was not tested)
 08     [03fa8cb1] (000/705) No match (V2 was not tested)
 09     [139f0f86] (000/708) No match (V2 was not tested)
 10     [4c61cedd] (000/705) No match (V2 was not tested)
 11     [063c08e7] (000/705) No match (V2 was not tested)
 12     [ebe10e19] (000/703) No match (V2 was not tested)

Track Peak [ CRC32  ] [W/O NULL] [  LOG   ]
 --  100.0 [6E8FD919] [45A39174]   CRC32   
 01  100.0 [57766E14] [38233F0B]           
 02  100.0 [F187C60C] [2388B970]           
 03  100.0 [5A666297] [018980B0]           
 04  100.0 [356F4FE6] [42810A43]           
 05  100.0 [C318AAAC] [15812688]           
 06  100.0 [B9167659] [8834C916]           
 07  100.0 [D011DF9C] [FE7D5AD7]           
 08  100.0 [72F431AD] [26CD6C16]           
 09  100.0 [52A44354] [2D2686FE]           
 10  100.0 [9FAD3AD0] [1A273D30]           
 11  100.0 [9C94C628] [5DACBACB]           
 12  100.0 [5BC4653A] [C44BAC77]           


CD2
---

[CUETools log; Date: 2/1/2021 12:32:34 AM; Version: 2.1.7]
Pregap length 00:00:13.
[CTDB TOCID: avuvL4l2xBui3XG.C1OiTJbWhxw-] found.
Track | CTDB Status
  1   | (1009/1022) Accurately ripped
  2   | (1014/1022) Accurately ripped
  3   | (1013/1022) Accurately ripped
  4   | (1012/1022) Accurately ripped
  5   | (1014/1022) Accurately ripped
  6   | (1005/1022) Accurately ripped
  7   | (1011/1022) Accurately ripped
  8   | (1003/1022) Accurately ripped
  9   | (1003/1022) Accurately ripped
[AccurateRip ID: 0013fa42-00978bbf-6a0ed909] found.
Track   [  CRC   |   V2   ] Status
 01     [57750ec3|8f20acf8] (200+200/701) Accurately ripped
 02     [368db33d|aa901aa6] (200+200/703) Accurately ripped
 03     [b41ac354|b869ea1a] (200+200/703) Accurately ripped
 04     [5d8a71ee|45109c31] (200+200/703) Accurately ripped
 05     [62420ffc|fb3deca1] (200+200/704) Accurately ripped
 06     [516fd1c8|d6282901] (200+200/700) Accurately ripped
 07     [730f64b9|312c10a9] (200+200/703) Accurately ripped
 08     [05c78569|18db663d] (200+200/703) Accurately ripped
 09     [30dc4602|25cb75fb] (200+200/701) Accurately ripped
Offsetted by -12:
 01     [63359c60] (010/701) Accurately ripped
 02     [93c52737] (009/703) Accurately ripped
 03     [9982a03b] (008/703) Accurately ripped
 04     [09e01d11] (008/703) Accurately ripped
 05     [b1f61cd3] (010/704) Accurately ripped
 06     [874c2080] (010/700) Accurately ripped
 07     [0bc01cbb] (010/703) Accurately ripped
 08     [1d63a8c9] (010/703) Accurately ripped
 09     [203a2718] (009/701) Accurately ripped
Offsetted by -6:
 01     [44e7ad47] (100/701) Accurately ripped
 02     [10df1c93] (101/703) Accurately ripped
 03     [24df743e] (101/703) Accurately ripped
 04     [0084d36d] (101/703) Accurately ripped
 05     [c10cdb17] (101/704) Accurately ripped
 06     [08acfea9] (099/700) Accurately ripped
 07     [330b2680] (101/703) Accurately ripped
 08     [f3672bd2] (101/703) Accurately ripped
 09     [d1473bf3] (100/701) Accurately ripped
Offsetted by -676:
 01     [1e799274] (000/701) No match (V2 was not tested)
 02     [b0854830] (002/703) Accurately ripped
 03     [0b7b95ff] (002/703) Accurately ripped
 04     [66f686e0] (002/703) Accurately ripped
 05     [7ee96b7c] (002/704) Accurately ripped
 06     [7cab066a] (002/700) Accurately ripped
 07     [0602ba8b] (002/703) Accurately ripped
 08     [96572d9b] (002/703) Accurately ripped
 09     [af20a9c7] (002/701) Accurately ripped
Offsetted by -670:
 01     [749c28ab] (000/701) No match (V2 was not tested)
 02     [e5eab722] (000/703) No match (V2 was not tested)
 03     [370e040c] (000/703) No match (V2 was not tested)
 04     [65aa6384] (000/703) No match (V2 was not tested)
 05     [51ba3f67] (000/704) No match (V2 was not tested)
 06     [12987c3f] (000/700) No match (V2 was not tested)
 07     [112997f9] (000/703) No match (V2 was not tested)
 08     [85e9e130] (000/703) No match (V2 was not tested)
 09     [4c376326] (000/701) No match (V2 was not tested)
Offsetted by -667:
 01     [ace0bf25] (000/701) No match (V2 was not tested)
 02     [e8cd770a] (000/703) No match (V2 was not tested)
 03     [a4558024] (000/703) No match (V2 was not tested)
 04     [132441e0] (000/703) No match (V2 was not tested)
 05     [c62b612c] (000/704) No match (V2 was not tested)
 06     [b3ff3f57] (000/700) No match (V2 was not tested)
 07     [4a374412] (000/703) No match (V2 was not tested)
 08     [64eced13] (000/703) No match (V2 was not tested)
 09     [6104e2ed] (000/701) No match (V2 was not tested)
Offsetted by -132:
 01     [8eacc9ed] (000/701) No match (V2 was not tested)
 02     [814321d8] (000/703) No match (V2 was not tested)
 03     [59a32806] (000/703) No match (V2 was not tested)
 04     [69b098c1] (000/703) No match (V2 was not tested)
 05     [fabde699] (000/704) No match (V2 was not tested)
 06     [5d11196b] (000/700) No match (V2 was not tested)
 07     [af9b3805] (000/703) No match (V2 was not tested)
 08     [3d8fd634] (000/703) No match (V2 was not tested)
 09     [ad17dee1] (000/701) No match (V2 was not tested)
Offsetted by -66:
 01     [4ce2fd1b] (000/701) No match (V2 was not tested)
 02     [92ac9692] (000/703) No match (V2 was not tested)
 03     [3f45b20a] (000/703) No match (V2 was not tested)
 04     [a8522836] (000/703) No match (V2 was not tested)
 05     [5caf0e1a] (000/704) No match (V2 was not tested)
 06     [9405a852] (000/700) No match (V2 was not tested)
 07     [9f3885f4] (000/703) No match (V2 was not tested)
 08     [39a25c88] (000/703) No match (V2 was not tested)
 09     [ebd84461] (000/701) No match (V2 was not tested)
Offsetted by 6:
 01     [0dad586b] (002/701) Accurately ripped
 02     [148145a6] (002/703) Accurately ripped
 03     [a8c0fc4d] (002/703) Accurately ripped
 04     [5e74d335] (002/703) Accurately ripped
 05     [a2f6b2b8] (002/704) Accurately ripped
 06     [1d7a4ed5] (002/700) Accurately ripped
 07     [13ab1ac2] (000/703) No match (V2 was not tested)
 08     [a6b5051c] (002/703) Accurately ripped
 09     [463fc250] (002/701) Accurately ripped

Track Peak [ CRC32  ] [W/O NULL] [  LOG   ]
 --  100.0 [250D8A12] [1D9A9310]   CRC32   
 01  100.0 [5C7F0CB4] [2B17A6CD]           
 02  100.0 [E256B3F0] [75FF3035]           
 03  100.0 [6487AF38] [CFDDBE9D]           
 04   99.9 [4537C96E] [6E2AC2A3]           
 05  100.0 [0C222528] [B02CD372]           
 06  100.0 [C7874912] [9669C152]           
 07  100.0 [0682FD87] [6334FD5C]           
 08  100.0 [E7BF11BF] [63489957]           
 09  100.0 [519A83B8] [7A0C2C6C]           



Create a new paste based on this one


Comments: