[ create a new paste ] login | about

Link: http://codepad.org/3Bax1uso    [ raw code | fork ]

Plain Text, pasted on Apr 6:
Exact Audio Copy V1.1 from 23. June 2015

EAC extraction logfile from 14. March 2017, 19:33

Various Artists (Priester) / Grand 12-Inches Vol.15

Used drive  : HL-DT-STDVDRAM GH24NS90   Adapter: 1  ID: 0

Read mode               : Secure
Utilize accurate stream : Yes
Defeat audio cache      : Yes
Make use of C2 pointers : No

Read offset correction                      : 6
Overread into Lead-In and Lead-Out          : No
Fill up missing offset samples with silence : Yes
Delete leading and trailing silent blocks   : No
Null samples used in CRC calculations       : Yes
Used interface                              : Native Win32 interface for Win NT & 2000
Gap handling                                : Appended to previous track

Used output format              : User Defined Encoder
Selected bitrate                : 1024 kBit/s
Quality                         : High
Add ID3 tag                     : No
Command line compressor         : C:\Program Files (x86)\Exact Audio Copy\Flac\flac.exe
Additional command line options : -8 -e -V -T "ARTIST=%artist%" -T "TITLE=%title%" -T "ALBUM=%albumtitle%" -T "DATE=%year%" -T "TRACKNUMBER=%tracknr%" -T "GENRE=%genre%" -T "PERFORMER=%albuminterpret%" -T "COMPOSER=%composer%" %haslyrics%--tag-from-file=LYRICS="%lyricsfile%"%haslyrics% -T "ALBUMARTIST=%albumartist%" -T "DISCNUMBER=%cdnumber%" -T "TOTALDISCS=%totalcds%" -T "TOTALTRACKS=%numtracks%" -T "COMMENT=%comment%" %source% -o %dest%


TOC of the extracted CD

     Track |   Start  |  Length  | Start sector | End sector 
    ---------------------------------------------------------
        1  |  0:00.00 |  7:56.20 |         0    |    35719   
        2  |  7:56.20 |  5:50.03 |     35720    |    61972   
        3  | 13:46.23 |  7:04.23 |     61973    |    93795   
        4  | 20:50.46 |  5:46.08 |     93796    |   119753   
        5  | 26:36.54 |  6:28.63 |    119754    |   148916   
        6  | 33:05.42 |  6:25.11 |    148917    |   177802   
        7  | 39:30.53 |  6:19.39 |    177803    |   206266   
        8  | 45:50.17 |  8:17.03 |    206267    |   243544   
        9  | 54:07.20 |  6:31.29 |    243545    |   272898   
       10  | 60:38.49 | 10:42.20 |    272899    |   321068   


Track  1

     Filename D:\Mijn Documenten\Bureaublad\Grand 12 inches 15 (flac)\cd2\01 - The Trammps - That's Where The Happy People Go (Album Version).wav

     Pre-gap length  0:00:02.00

     Peak level 98.8 %
     Extraction speed 1.3 X
     Track quality 100.0 %
     Test CRC 5DAF262F
     Copy CRC 5DAF262F
     Accurately ripped (confidence 2)  [83AC668A]  (AR v2)
     Copy OK

Track  2

     Filename D:\Mijn Documenten\Bureaublad\Grand 12 inches 15 (flac)\cd2\02 - Sergio Mendez & Brasil 88 - I'll Tell You (Album Version).wav

     Pre-gap length  0:00:02.00

     Peak level 98.8 %
     Extraction speed 1.5 X
     Track quality 100.0 %
     Test CRC CAE42D69
     Copy CRC CAE42D69
     Accurately ripped (confidence 2)  [42330F43]  (AR v2)
     Copy OK

Track  3

     Filename D:\Mijn Documenten\Bureaublad\Grand 12 inches 15 (flac)\cd2\03 - The Limit - She's So Divine (Long Version By Ben Liebrand).wav

     Pre-gap length  0:00:02.00

     Peak level 98.8 %
     Extraction speed 1.5 X
     Track quality 99.9 %
     Test CRC CBBC0831
     Copy CRC CBBC0831
     Accurately ripped (confidence 2)  [8CC69845]  (AR v2)
     Copy OK

Track  4

     Filename D:\Mijn Documenten\Bureaublad\Grand 12 inches 15 (flac)\cd2\04 - Dance Reaction - Disco Train (12'' Version).wav

     Pre-gap length  0:00:02.00

     Peak level 98.8 %
     Extraction speed 1.8 X
     Track quality 100.0 %
     Test CRC 80E65AD0
     Copy CRC 80E65AD0
     Accurately ripped (confidence 2)  [418A11D0]  (AR v2)
     Copy OK

Track  5

     Filename D:\Mijn Documenten\Bureaublad\Grand 12 inches 15 (flac)\cd2\05 - Sandy Kerr - Thug Rock (12'' Version).wav

     Pre-gap length  0:00:02.00

     Peak level 98.8 %
     Extraction speed 1.9 X
     Track quality 100.0 %
     Test CRC 39C30C69
     Copy CRC 39C30C69
     Accurately ripped (confidence 2)  [86336E30]  (AR v2)
     Copy OK

Track  6

     Filename D:\Mijn Documenten\Bureaublad\Grand 12 inches 15 (flac)\cd2\06 - Stargard - Wear It Out (12'' Version).wav

     Pre-gap length  0:00:02.00

     Peak level 98.8 %
     Extraction speed 2.1 X
     Track quality 100.0 %
     Test CRC 75289BDF
     Copy CRC 75289BDF
     Accurately ripped (confidence 2)  [A77333BC]  (AR v2)
     Copy OK

Track  7

     Filename D:\Mijn Documenten\Bureaublad\Grand 12 inches 15 (flac)\cd2\07 - Jeffrey Osbourne - Plane Love (12'' Specially Remixed Version).wav

     Pre-gap length  0:00:02.00

     Peak level 98.8 %
     Extraction speed 2.2 X
     Track quality 100.0 %
     Test CRC 182A5845
     Copy CRC 182A5845
     Accurately ripped (confidence 2)  [FC578CB8]  (AR v2)
     Copy OK

Track  8

     Filename D:\Mijn Documenten\Bureaublad\Grand 12 inches 15 (flac)\cd2\08 - Phreek Feat. Christie Shire - Weekend (Extended Version).wav

     Pre-gap length  0:00:02.00

     Peak level 98.8 %
     Extraction speed 2.3 X
     Track quality 100.0 %
     Test CRC 2A73D9DB
     Copy CRC 2A73D9DB
     Accurately ripped (confidence 2)  [EC26B5D7]  (AR v2)
     Copy OK

Track  9

     Filename D:\Mijn Documenten\Bureaublad\Grand 12 inches 15 (flac)\cd2\09 - Chaka Khan - Eye To Eye (Extended Remix).wav

     Pre-gap length  0:00:02.00

     Peak level 98.8 %
     Extraction speed 2.4 X
     Track quality 100.0 %
     Test CRC D3376427
     Copy CRC D3376427
     Accurately ripped (confidence 2)  [0118D811]  (AR v2)
     Copy OK

Track 10

     Filename D:\Mijn Documenten\Bureaublad\Grand 12 inches 15 (flac)\cd2\10 - Brainstorm - Hot For You (Album Version).wav

     Pre-gap length  0:00:02.00

     Peak level 98.8 %
     Extraction speed 2.7 X
     Track quality 100.0 %
     Test CRC 3D73FE2D
     Copy CRC 3D73FE2D
     Accurately ripped (confidence 2)  [E8783134]  (AR v2)
     Copy OK


All tracks accurately ripped

No errors occurred

End of status report

---- CUETools DB Plugin V2.1.6

[CTDB TOCID: .d5F.G2PJ.27XMdM0kOVCC1OI1U-] found
Submit result: .d5F.G2PJ.27XMdM0kOVCC1OI1U- has been confirmed
Track | CTDB Status
  1   | (9/9) Accurately ripped
  2   | (9/9) Accurately ripped
  3   | (9/9) Accurately ripped
  4   | (9/9) Accurately ripped
  5   | (9/9) Accurately ripped
  6   | (9/9) Accurately ripped
  7   | (9/9) Accurately ripped
  8   | (9/9) Accurately ripped
  9   | (9/9) Accurately ripped
 10   | (9/9) Accurately ripped


==== Log checksum 480E49A6B4BD560E36BA1952A120623A68D37A412B74D73C849199496EA4CCF9 ====



Create a new paste based on this one


Comments: