[ create a new paste ] login | about

Link: http://codepad.org/3DUH380h    [ raw code | fork ]

Plain Text, pasted on May 27:
foobar2000 1.1.11 / Dynamic Range Meter 1.1.1
log date: 2012-11-16 12:43:41

--------------------------------------------------------------------------------
Analyzed: Los Lobos / By The Light Of The Moon (2012 MFSL Hybrid SACD)
--------------------------------------------------------------------------------

DR         Peak         RMS     Duration Track
--------------------------------------------------------------------------------
DR12      -0.26 dB   -13.82 dB      4:49 01-One Time, One Night
DR10      -0.15 dB   -12.96 dB      4:14 02-Shakin' Shakin' Shakes
DR12      -0.26 dB   -14.50 dB      4:00 03-Is This All There Is?
DR12      -0.48 dB   -13.83 dB      3:26 04-Prenda Del Alma
DR12      -0.10 dB   -14.33 dB      3:57 05-All I Wanted To Do Was Dance
DR13      -0.17 dB   -15.17 dB      3:36 06-Set Me Free (Rosa Lee)
DR12      -0.44 dB   -13.72 dB      3:13 07-The Hardest Time
DR12      -0.23 dB   -14.08 dB      3:41 08-My Baby's Gone
DR12      -0.55 dB   -16.61 dB      2:55 09-River Of Fools
DR12      -0.31 dB   -13.71 dB      3:02 10-The Mess We're In
DR13      -0.74 dB   -16.72 dB      3:46 11-Tears Of God
--------------------------------------------------------------------------------

Number of tracks:  11
Official DR value: DR12

Samplerate:        88200 Hz
Channels:          2
Bits per sample:   24
Bitrate:           2613 kbps
Codec:             FLAC
================================================================================




Create a new paste based on this one


Comments: