[ create a new paste ] login | about

Link: http://codepad.org/3MhLOY0w    [ raw code | fork ]

Plain Text, pasted on Apr 20:
foobar2000 1.3.9 / Dynamic Range Meter 1.1.1
log date: 2016-06-22 14:48:02

--------------------------------------------------------------------------------
Analyzed: Isao Tomita / Okhotsk Fantasy (Hybrid SACD)
--------------------------------------------------------------------------------

DR         Peak         RMS     Duration Track
--------------------------------------------------------------------------------
DR7       -0.55 dB   -17.84 dB     11:46 01-Okhotsk Fantasy
DR8       -1.41 dB   -22.14 dB      7:16 02-Pavane Pour Une Infante Défunte
DR7       -5.86 dB   -26.80 dB      1:55 03-Ma Mere L'Oye Suite: Pavane De La Belle Au Bois Dormant
DR8       -3.83 dB   -24.54 dB      3:52 04-Petite Poucet
DR9       -0.33 dB   -23.17 dB      3:38 05-Laideronette, Impératrice Des Pagodes
DR11      -0.24 dB   -26.64 dB      6:00 06-Les Entretiens De La Belle Et La Bête
DR9       -0.12 dB   -20.76 dB      4:25 07-Le Jardin Feerique
DR7       -0.24 dB   -19.01 dB     10:10 08-Symphonic Poem For Children 'Night On The Milky Way Train'
--------------------------------------------------------------------------------

Number of tracks:  8
Official DR value: DR8

Samplerate:        88200 Hz
Channels:          6
Bits per sample:   24
Bitrate:           4318 kbps
Codec:             FLAC
================================================================================




Create a new paste based on this one


Comments: