[ create a new paste ] login | about

Link: http://codepad.org/3MjEa6oq    [ raw code | fork ]

Plain Text, pasted on May 3:
foobar2000 1.3.14 / Dynamic Range Meter 1.1.1
log date: 2017-05-03 07:37:38

--------------------------------------------------------------------------------
Analyzed: Paul McCartney / Flowers In The Dirt / 2017 Deluxe Edition
--------------------------------------------------------------------------------

DR         Peak         RMS     Duration Track
--------------------------------------------------------------------------------
DR12      -0.18 dB   -15.38 dB      4:24 01-Back On My Feet
DR13      -0.12 dB   -15.40 dB      4:15 02-Flying To My Home
DR10      -1.16 dB   -14.10 dB      4:06 03-The First Stone
DR14      -1.08 dB   -16.46 dB      6:59 04-Good Sign
DR13      -0.79 dB   -16.56 dB      6:11 05-This One (Club Lovejoys Mix)
DR13      -0.20 dB   -15.08 dB      5:14 06-Figure Of Eight (12’’ Bob Clearmountain Mix)
DR13      -0.20 dB   -15.87 dB      4:03 07-Loveliest Thing
DR13      -0.29 dB   -15.33 dB      7:06 08-Ou Est Le Soleil? (12’’ Mix)
DR13      -1.03 dB   -16.39 dB      4:30 09-Ou Est Le Soleil? (Tub Dub Mix)
DR12      -0.23 dB   -15.54 dB      4:53 10-Ou Est Le Soleil (7’’ Mix) (2017 Reissue)
DR12      -1.74 dB   -15.80 dB      4:29 11-Ou Est Le Soleil? (Instrumental)
DR14      -0.29 dB   -15.13 dB      5:32 12-Party Party (Original Mix)
DR12      -0.53 dB   -14.10 dB      6:21 13-Party Party (Club Mix)
--------------------------------------------------------------------------------

Number of tracks:  13
Official DR value: DR13

Samplerate:        44100 Hz
Channels:          2
Bits per sample:   16
Bitrate:           842 kbps
Codec:             FLAC
================================================================================

foobar2000 1.3.14 / Dynamic Range Meter 1.1.1
log date: 2017-05-03 07:35:12

--------------------------------------------------------------------------------
Analyzed: Paul McCartney & Elvis Costello / Flowers In The Dirt / 2017 Deluxe Edition
--------------------------------------------------------------------------------

DR         Peak         RMS     Duration Track
--------------------------------------------------------------------------------
DR10      -0.90 dB   -14.37 dB      2:21 01-I Don't Want To Confess
DR13      -0.21 dB   -17.56 dB      2:14 02-Shallow Grave
DR7       -5.16 dB   -15.54 dB      2:29 03-Mistress And Maid
--------------------------------------------------------------------------------

Number of tracks:  3
Official DR value: DR10

Samplerate:        44100 Hz
Channels:          2
Bits per sample:   16
Bitrate:           834 kbps
Codec:             FLAC
================================================================================




Create a new paste based on this one


Comments: