[ create a new paste ] login | about

Link: http://codepad.org/3NY7HEHn    [ raw code | fork ]

Plain Text, pasted on Jun 8:
foobar2000 1.3.15 / Dynamic Range Meter 1.1.1
log date: 2017-06-07 12:07:01

--------------------------------------------------------------------------------
Analyzed: The Beatles / Sgt. Pepper's Lonely Hearts Club Band [50th Anniversary 2x 180g Vinyl Edition]
--------------------------------------------------------------------------------

DR         Peak         RMS     Duration Track
--------------------------------------------------------------------------------
DR10      -2.28 dB   -15.23 dB      2:37 15-Sgt. Pepper's Lonely Hearts Club Band (Take 9)
DR13      -3.15 dB   -18.81 dB      3:18 16-With A Little Help From My Friends (Takes 1 and 2)
DR12      -0.37 dB   -19.63 dB      3:59 17-Lucy In The Sky With Diamonds (Take 1)
DR9       -2.55 dB   -16.87 dB      2:19 18-Getting Better (Take 1)
DR11      -3.39 dB   -17.18 dB      3:28 19-Fixing A Hole (Take 3)
DR10      -3.80 dB   -16.83 dB      3:49 20-She's Leaving Home (Take 1)
DR11      -3.69 dB   -17.03 dB      3:28 21-Being For The Benefit Of Mr. Kite! (Take 4)
DR10      -3.82 dB   -18.06 dB      5:33 22-Within You Without You
DR12      -3.05 dB   -17.28 dB      3:01 23-When I'm Sixty-Four (Take 2)
DR10      -2.65 dB   -15.75 dB      3:05 24-Lovely Rita (Take 9)
DR10      -3.37 dB   -15.59 dB      2:47 25-Good Morning Good Morning (Take 8)
DR11      -2.69 dB   -16.48 dB      1:57 26-Sgt. Pepper's Lonely Hearts Club Band (Reprise) (Take 8)
DR10      -3.70 dB   -17.28 dB      4:53 27-A Day In The Life (Take 1 and Hummed Last Chord)
--------------------------------------------------------------------------------

Number of tracks:  13
Official DR value: DR11

Samplerate:        44100 Hz
Channels:          2
Bits per sample:   16
Bitrate:           694 kbps
Codec:             FLAC
================================================================================




Create a new paste based on this one


Comments: