[ create a new paste ] login | about

Link: http://codepad.org/3NfV65CM    [ raw code | fork ]

Plain Text, pasted on Jul 28:
foobar2000 1.3.17 / Dynamic Range Meter 1.1.1
log date: 2018-07-28 09:38:13

--------------------------------------------------------------------------------
Analyzed: Jay Jay Johnson / Supreme Jazz
--------------------------------------------------------------------------------

DR         Peak         RMS     Duration Track
--------------------------------------------------------------------------------
DR13      -0.21 dB   -15.03 dB      3:03 01-Don┤t Argue 
DR11      -0.17 dB   -14.49 dB      2:35 02-How Long Has This Been Going On
DR14      -0.14 dB   -16.75 dB      3:17 03-Riviera
DR13      -0.13 dB   -16.28 dB      3:08 04-Dinner For One 
DR14      -0.13 dB   -15.89 dB      3:00 05-Hip Bones
DR14      -0.14 dB   -16.31 dB      3:15 06-Wind Bag
DR13      -0.13 dB   -15.67 dB      3:19 07-We┤ll Be Togehter Again
DR14      -0.16 dB   -16.85 dB      3:14 08-Bag┤s Groove
DR9       -0.13 dB   -11.54 dB      3:37 09-Too Marvellous For Words
DR9       -0.13 dB   -11.39 dB      3:41 10-Jay
DR9       -0.13 dB   -11.03 dB      3:54 11-Old Devil Moon
DR11      -0.13 dB   -14.21 dB      4:08 12-It┤s Yo Or No One 
DR10      -0.14 dB   -12.08 dB      4:10 13-Coffee Pot
DR12      -0.01 dB   -13.76 dB      4:19 14-Pennies From Heaven
DR10      -0.13 dB   -11.42 dB      4:23 15-Viscosity
DR11      -0.13 dB   -13.57 dB      3:09 16-You┤re Mine Yo
DR10      -0.14 dB   -11.71 dB      4:28 17-'Daylie' Double
DR11      -0.13 dB   -12.24 dB      4:40 18-Groovin
--------------------------------------------------------------------------------

Number of tracks:  18
Official DR value: DR12

Samplerate:        88200 Hz
Channels:          2
Bits per sample:   24
Bitrate:           2508 kbps
Codec:             FLAC
================================================================================




Create a new paste based on this one


Comments: