[ create a new paste ] login | about

Link: http://codepad.org/3NzZaPKG    [ raw code | fork ]

Plain Text, pasted on Nov 27:
foobar2000 1.4.6 / Dynamic Range Meter 1.1.1
log date: 2019-11-26 18:13:45

--------------------------------------------------------------------------------
Analyzed: Don Felder / Airborne [1983 Asylum Records US Pressing]
--------------------------------------------------------------------------------

DR         Peak         RMS     Duration Track
--------------------------------------------------------------------------------
DR13      -0.32 dB   -15.64 dB      4:50 01-Bad Girls
DR12      -1.60 dB   -15.09 dB      4:43 02-Winners
DR13      -1.35 dB   -16.00 dB      5:10 03-Haywire
DR12      -1.89 dB   -16.26 dB      4:55 04-Who Tonight
DR12      -1.22 dB   -15.91 dB      4:19 05-Never Surrender
DR12      -0.61 dB   -14.65 dB      4:15 06-Asphalt Jungle
DR13      -1.77 dB   -16.54 dB      4:36 07-Night Owl
DR12      -1.44 dB   -15.79 dB      4:47 08-Still Alive
--------------------------------------------------------------------------------

Number of tracks:  8
Official DR value: DR12

Samplerate:        192000 Hz
Channels:          2
Bits per sample:   24
Bitrate:           5531 kbps
Codec:             FLAC
================================================================================




Create a new paste based on this one


Comments: