[ create a new paste ] login | about

Link: http://codepad.org/3Rt1CKpz    [ raw code | fork ]

Plain Text, pasted on Mar 16:
[CUETools log; Date: 3/16/2016 2:39:44 PM; Version: 2.1.5]
[CTDB TOCID: Pi0WnSY9zhhihp5FhUg56RSdKwE-] found.
Track | CTDB Status
  1   | (20/20) Accurately ripped
  2   | (20/20) Accurately ripped
  3   | (20/20) Accurately ripped
  4   | (20/20) Accurately ripped
  5   | (20/20) Accurately ripped
  6   | (20/20) Accurately ripped
  7   | (20/20) Accurately ripped
  8   | (20/20) Accurately ripped
  9   | (20/20) Accurately ripped
 10   | (20/20) Accurately ripped
 11   | (20/20) Accurately ripped
[AccurateRip ID: 000f9dc8-00887fbd-a2092e0b] found.
Track   [  CRC   |   V2   ] Status
 01     [fa50415b|9065646c] (00+26/26) Accurately ripped
 02     [1d0f7175|0853a1e8] (00+26/26) Accurately ripped
 03     [928ee182|3148acbd] (00+26/26) Accurately ripped
 04     [3d5a3e02|66d8313b] (00+26/26) Accurately ripped
 05     [8f53318a|d6af888b] (00+26/26) Accurately ripped
 06     [f8a71bac|3334c2d1] (00+26/26) Accurately ripped
 07     [ebc503b2|51990f73] (00+26/26) Accurately ripped
 08     [22381b29|aa068fe1] (00+26/26) Accurately ripped
 09     [2830b12b|4cb9e6ed] (00+26/26) Accurately ripped
 10     [96a89c2d|28ef05d6] (00+26/26) Accurately ripped
 11     [aa5be303|104c3b71] (00+26/26) Accurately ripped

Track Peak [ CRC32  ] [W/O NULL] [  LOG   ]
 --   97.8 [C3783210] [A10CE25F]   CRC32   
 01   97.8 [F3028DA8] [DE8BAF73]           
 02   86.6 [08C1098B] [32E6C12A]           
 03   92.7 [27BBF68D] [051D01C9]           
 04   62.4 [A57D0DEE] [00995EE2]           
 05   79.4 [93C34B9F] [E1286C49]           
 06   90.5 [DCB39A84] [1DC2784C]           
 07   92.8 [B6D4F6C1] [EFCA4254]           
 08   86.0 [CB0CB7B5] [44C9F162]           
 09   93.3 [3CAF5A31] [27D8BC59]           
 10   93.1 [7FB2018A] [CB97CCF0]           
 11   62.1 [0F362E9B] [BD0A59D2]           



Create a new paste based on this one


Comments: