[ create a new paste ] login | about

Link: http://codepad.org/3UPOsox2    [ raw code | fork ]

Plain Text, pasted on Aug 13:
[CUETools log; Date: 8/12/2016 4:17:57 PM; Version: 2.1.5]
[CTDB TOCID: PTc1wII_YHHIzzdmLQZiO3QKjCc-] found.
Track | CTDB Status
  1   | (1/1) Accurately ripped
  2   | (1/1) Accurately ripped
  3   | (1/1) Accurately ripped
  4   | (1/1) Accurately ripped
  5   | (1/1) Accurately ripped
  6   | (1/1) Accurately ripped
  7   | (1/1) Accurately ripped
  8   | (1/1) Accurately ripped
  9   | (1/1) Accurately ripped
[AccurateRip ID: 000b3247-00531818-6c07a609] found.
Track   [  CRC   |   V2   ] Status
 01     [a72b1d31|84496948] (0+3/3) Accurately ripped
 02     [403e55b6|7b77a050] (0+3/3) Accurately ripped
 03     [e25d3d64|e7a74bb9] (0+3/3) Accurately ripped
 04     [1b03fa22|7068e66d] (0+3/3) Accurately ripped
 05     [c3494ac4|f34f7b60] (0+3/3) Accurately ripped
 06     [1f29afb6|398b6b38] (0+3/3) Accurately ripped
 07     [eb419e98|a53d22df] (0+3/3) Accurately ripped
 08     [a4b167ea|25858802] (0+3/3) Accurately ripped
 09     [0ccb813e|babcfe4a] (0+3/3) Accurately ripped

Track Peak [ CRC32  ] [W/O NULL] [  LOG   ]
 --   99.3 [2A433072] [0BB8B300]   CRC32   
 01   98.8 [31E2BD73] [F86FE2AA]           
 02   98.9 [A37511CF] [D7DC7F44]           
 03   98.8 [4099B132] [71F0EFAA]           
 04   99.2 [44788667] [43CCCD0B]           
 05   99.1 [CA2AD792] [DD4FD9A4]           
 06   99.3 [FB33A88D] [019F7BD5]           
 07   99.2 [ED51898E] [E81228FD]           
 08   99.0 [7A6A096B] [09E43DA4]           
 09   98.9 [6B97981B] [088E54EC]           



Create a new paste based on this one


Comments: