[ create a new paste ] login | about

Link: http://codepad.org/3bGmoAt9    [ raw code | fork ]

Plain Text, pasted on Feb 13:
foobar2000 1.5 / Dynamic Range Meter 1.1.1
log date: 2020-02-13 19:34:49

--------------------------------------------------------------------------------
Analyzed: Cream / Wheels Of Fire
--------------------------------------------------------------------------------

DR         Peak         RMS     Duration Track
--------------------------------------------------------------------------------
DR16      -0.05 dB   -17.38 dB      4:57 01-White Room
DR13      -2.29 dB   -17.70 dB      4:57 02-Sitting On Top Of The World
DR13      -2.13 dB   -19.86 dB      4:30 03-Passing The Time
DR12      -3.25 dB   -18.33 dB      4:19 04-As You Said
DR12      -1.80 dB   -17.31 dB      3:12 05-Pressed Rat And Warthog
DR13      -0.05 dB   -15.35 dB      4:11 06-Politician
DR13      -0.60 dB   -17.11 dB      2:53 07-Those Were The Days
DR15      -2.29 dB   -18.75 dB      3:08 08-Born Under A Bad Sign
DR13      -0.78 dB   -17.09 dB      3:37 09-Deserted Cities Of The Heart
DR12      -0.05 dB   -13.67 dB      4:13 10-Crossroads
DR12      -0.87 dB   -14.65 dB     16:44 11-Spoonful
DR13      -3.64 dB   -19.62 dB      6:55 12-Traintime
DR14      -0.05 dB   -17.49 dB     16:20 13-Toad
--------------------------------------------------------------------------------

Number of tracks:  13
Official DR value: DR13

Samplerate:        96000 Hz
Channels:          2
Bits per sample:   24
Bitrate:           2931 kbps
Codec:             FLAC
================================================================================




Create a new paste based on this one


Comments: