[ create a new paste ] login | about

Link: http://codepad.org/3gFTCpbo    [ raw code | fork ]

Plain Text, pasted on Nov 21:
foobar2000 1.3.17 / Dynamic Range Meter 1.1.1
log date: 2018-11-20 20:18:03

--------------------------------------------------------------------------------
Analyzed: Sam Cooke / Keep Movin' On
--------------------------------------------------------------------------------

DR         Peak         RMS     Duration Track
--------------------------------------------------------------------------------
DR12      -5.68 dB   -19.65 dB      2:28 01-Ain't That Good News
DR13      -4.35 dB   -18.60 dB      2:33 02-Rome (Wasn't Built In A Day)
DR12      -4.10 dB   -18.38 dB      2:41 03-Meet Me At Mary's Place
DR11      -5.39 dB   -19.33 dB      2:47 04-Basin Street Blues
DR13      -3.45 dB   -18.75 dB      2:28 05-He's A Cousin Of Mine
DR12      -4.83 dB   -18.84 dB      3:09 06-Tennessee Waltz
DR11      -5.41 dB   -18.96 dB      2:43 07-Falling In Love
DR11      -3.83 dB   -18.45 dB      2:33 08-When A Boy Falls In Love
DR11      -5.10 dB   -17.51 dB      2:26 09-Good Times
DR12      -4.46 dB   -18.83 dB      2:50 10-Shake
DR13      -3.85 dB   -18.32 dB      2:32 11-Yeah Man
DR12      -3.76 dB   -18.00 dB      2:45 12-It's Got The Whole World Shaking
DR11      -3.59 dB   -18.79 dB      2:29 13-The Riddle Song
DR12      -5.55 dB   -19.14 dB      2:27 14-I'm Just A Country Boy
DR11      -2.15 dB   -18.52 dB      2:37 15-Try A Little Love
DR12      -4.21 dB   -18.18 dB      3:01 16-There'll Be No Second Time
DR13      -1.85 dB   -18.11 dB      2:40 17-Another Saturday Night
DR12      -4.37 dB   -18.72 dB      2:42 18-Sugar Dumpling
DR11      -2.38 dB   -17.21 dB      2:35 19-That's Where It's At
DR11      -4.13 dB   -18.20 dB      3:00 20-You're Nobody Till Somebody Loves You
DR13      -1.86 dB   -18.50 dB      2:53 21-(Somebody) Ease My Troublin' Mind
DR10      -4.41 dB   -17.94 dB      3:11 22-A Change Is Gonna Come
DR12      -3.74 dB   -18.97 dB      2:20 23-Keep Movin' On
--------------------------------------------------------------------------------

Number of tracks:  23
Official DR value: DR12

Samplerate:        2822400 Hz / PCM Samplerate: 176400 Hz
Channels:          2
Bits per sample:   1
Bitrate:           5645 kbps
Codec:             DSD64
================================================================================




Create a new paste based on this one


Comments: