[ create a new paste ] login | about

Link: http://codepad.org/3jQg0SjM    [ raw code | fork ]

Plain Text, pasted on May 8:
foobar2000 1.4.1 / Dynamic Range Meter 1.1.1
log date: 2019-05-07 23:14:38

--------------------------------------------------------------------------------
Analyzed: MILES DAVIS / NEFERTITI
--------------------------------------------------------------------------------

DR         Peak         RMS     Duration Track
--------------------------------------------------------------------------------
DR10      -0.19 dB   -14.72 dB      7:55 01-NEFERTITI
DR14      -2.64 dB   -21.16 dB      6:38 02-FALL
DR13      -2.15 dB   -18.17 dB      8:56 03-HAND JIVE
DR13      -1.10 dB   -18.23 dB      7:33 04-MADNESS
DR13      -1.00 dB   -18.49 dB      3:04 05-RIOT
DR12      -0.01 dB   -16.20 dB      5:05 06-PINOCCHIO
--------------------------------------------------------------------------------

Number of tracks:  6
Official DR value: DR13

Samplerate:        88200 Hz
Channels:          2
Bits per sample:   24
Bitrate:           2766 kbps
Codec:             FLAC
================================================================================




Create a new paste based on this one


Comments: