[ create a new paste ] login | about

Link: http://codepad.org/3mMbiIff    [ raw code | fork ]

Plain Text, pasted on Aug 27:
[CUETools log; Date: 8/20/2018 11:49:50 AM; Version: 2.1.5]
[CTDB TOCID: _n8r15Q4h3oO7o37rVvfKC0Zy.I-] found.
Track | CTDB Status
  1   | (58/59) Accurately ripped
  2   | (58/59) Accurately ripped
  3   | (58/59) Accurately ripped
  4   | (58/59) Accurately ripped
  5   | (58/59) Accurately ripped
  6   | (58/59) Accurately ripped
  7   | (58/59) Accurately ripped
  8   | (58/59) Accurately ripped
  9   | (58/59) Accurately ripped
 10   | (58/59) Accurately ripped
 11   | (58/59) Accurately ripped
 12   | (58/59) Accurately ripped
 13   | (58/59) Accurately ripped
 14   | (58/59) Accurately ripped
 15   | (57/59) Accurately ripped
 16   | (57/59) Accurately ripped
 17   | (57/59) Accurately ripped
 18   | (58/59) Accurately ripped
 19   | (58/59) Accurately ripped
 20   | (58/59) Accurately ripped
[AccurateRip ID: 0022fcca-0204b0a5-1d0b9614] found.
Track   [  CRC   |   V2   ] Status
 01     [ede9e1ab|b706b3a4] (00+03/17) Accurately ripped
 02     [b49ff192|c3f482ff] (00+03/18) Accurately ripped
 03     [e7d8e088|16998340] (00+03/18) Accurately ripped
 04     [87cb1edb|6599942e] (00+03/19) Accurately ripped
 05     [49015903|0b3ad110] (00+03/18) Accurately ripped
 06     [08790368|1ae5421f] (00+03/18) Accurately ripped
 07     [9d671839|e0c2dd52] (00+03/18) Accurately ripped
 08     [d35e30aa|d4aa175d] (00+03/18) Accurately ripped
 09     [063d38cc|746d7c30] (00+03/18) Accurately ripped
 10     [ffa9b090|cd14f8d0] (00+03/18) Accurately ripped
 11     [a6f7898e|833084b6] (00+03/18) Accurately ripped
 12     [5517482d|83783ae3] (00+03/18) Accurately ripped
 13     [31126e67|9d572ecb] (00+03/17) Accurately ripped
 14     [02510d35|54dcba3a] (00+03/16) Accurately ripped
 15     [2911a754|c19f6fc3] (00+03/17) Accurately ripped
 16     [b89e93ce|7e861692] (00+03/18) Accurately ripped
 17     [48112380|7cca6591] (00+03/18) Accurately ripped
 18     [0195a8ed|bad962ba] (00+03/18) Accurately ripped
 19     [e379bd7b|312e2931] (00+03/18) Accurately ripped
 20     [51726392|ffd3bb09] (00+03/18) Accurately ripped
Offsetted by -823:
 01     [be62f11d] (04/17) Accurately ripped
 02     [dd7f3f08] (04/18) Accurately ripped
 03     [e45d1fe5] (04/18) Accurately ripped
 04     [90d7d06f] (04/19) Accurately ripped
 05     [364a490f] (04/18) Accurately ripped
 06     [3fbfdde9] (04/18) Accurately ripped
 07     [cb234a63] (04/18) Accurately ripped
 08     [71275640] (04/18) Accurately ripped
 09     [3bea5aa5] (04/18) Accurately ripped
 10     [470f7a5f] (04/18) Accurately ripped
 11     [6741b661] (04/18) Accurately ripped
 12     [703e391e] (04/18) Accurately ripped
 13     [4026d58e] (04/17) Accurately ripped
 14     [3d24f3c1] (04/16) Accurately ripped
 15     [5f6817c1] (04/17) Accurately ripped
 16     [3af56799] (04/18) Accurately ripped
 17     [adbd3cf9] (04/18) Accurately ripped
 18     [cce7e9f7] (04/18) Accurately ripped
 19     [907cd089] (04/18) Accurately ripped
 20     [666f88c0] (04/18) Accurately ripped

Track Peak [ CRC32  ] [W/O NULL] [  LOG   ]
 --   94.4 [AF8755F9] [ECA9E740]           
 01   81.9 [940E630E] [1F568CC2]   CRC32   
 02   90.2 [CED1D5FA] [115F62F0]   CRC32   
 03   86.0 [005C567F] [77B1F3B6]   CRC32   
 04   92.8 [1CE086D3] [215152B7]   CRC32   
 05   94.4 [94342C48] [75CE69AA]   CRC32   
 06   77.3 [D2B207A6] [1F6668B6]   CRC32   
 07   77.5 [6CA10762] [2F71BC76]   CRC32   
 08   69.4 [AC2D2E7B] [39A03476]   CRC32   
 09   91.4 [2E947FAD] [BA7B625D]   CRC32   
 10   85.2 [B6EDBF84] [6CF14A63]   CRC32   
 11   74.2 [19E3BF20] [AC031998]   CRC32   
 12   76.5 [9AE73D89] [9857856F]   CRC32   
 13   86.1 [40730FBF] [402AC0F6]   CRC32   
 14   68.2 [23E67E8D] [802D2AB7]   CRC32   
 15   71.3 [B2AFDEC0] [0E418A7F]   CRC32   
 16   76.7 [D6FE29F8] [1165D030]   CRC32   
 17   64.1 [681B10B1] [49C26369]   CRC32   
 18   86.9 [134A6B67] [7B392752]   CRC32   
 19   69.9 [56E0328E] [475D1B2A]   CRC32   
 20   91.6 [849C36A5] [A444165F]   CRC32   



Create a new paste based on this one


Comments: