[ create a new paste ] login | about

Link: http://codepad.org/3pa8ltpT    [ raw code | fork ]

Plain Text, pasted on Feb 15:
Exact Audio Copy V1.0 beta 3 from 29. August 2011

EAC extraction logfile from 12. October 2014, 19:20

Peter, Paul And Mary / In The Wind AF

Used drive  : PLEXTOR BD-R  PX-B950SA   Adapter: 6  ID: 0

Read mode               : Secure
Utilize accurate stream : Yes
Defeat audio cache      : Yes
Make use of C2 pointers : No

Read offset correction                      : 6
Overread into Lead-In and Lead-Out          : No
Fill up missing offset samples with silence : Yes
Delete leading and trailing silent blocks   : No
Null samples used in CRC calculations       : Yes
Used interface                              : Native Win32 interface for Win NT & 2000

Used output format : Internal WAV Routines
Sample format      : 44.100 Hz; 16 Bit; Stereo


TOC of the extracted CD

     Track |   Start  |  Length  | Start sector | End sector 
    ---------------------------------------------------------
        1  |  0:00.00 |  2:32.04 |         0    |    11403   
        2  |  2:32.04 |  2:21.62 |     11404    |    22040   
        3  |  4:53.66 |  4:37.64 |     22041    |    42879   
        4  |  9:31.55 |  3:40.17 |     42880    |    59396   
        5  | 13:11.72 |  2:58.26 |     59397    |    72772   
        6  | 16:10.23 |  4:11.14 |     72773    |    91611   
        7  | 20:21.37 |  3:13.30 |     91612    |   106116   
        8  | 23:34.67 |  3:18.67 |    106117    |   121033   
        9  | 26:53.59 |  3:15.67 |    121034    |   135725   
       10  | 30:09.51 |  2:46.29 |    135726    |   148204   
       11  | 32:56.05 |  2:05.44 |    148205    |   157623   
       12  | 35:01.49 |  2:57.21 |    157624    |   170919   


Range status and errors

Selected range

     Filename C:\Peter, Paul And Mary\1963 In The Wind (Hybrid SACD Audio Fidelity 2014)\Peter, Paul And Mary - In The Wind AF.wav

     Peak level 98.2 %
     Extraction speed 3.4 X
     Range quality 100.0 %
     Test CRC A4CA3602
     Copy CRC A4CA3602
     Copy OK

No errors occurred

 
AccurateRip summary
 
Track  1  not present in database
Track  2  not present in database
Track  3  not present in database
Track  4  not present in database
Track  5  not present in database
Track  6  not present in database
Track  7  not present in database
Track  8  not present in database
Track  9  not present in database
Track 10  not present in database
Track 11  not present in database
Track 12  not present in database
 
None of the tracks are present in the AccurateRip database

End of status report

==== Log checksum 5010A4D73441A54B9BBB946F2533559750643385B8AFB7BC280A4819D710D3AB ====



Create a new paste based on this one


Comments: