[ create a new paste ] login | about

Link: http://codepad.org/3qICbPpU    [ raw code | fork ]

Plain Text, pasted on Aug 29:
foobar2000 1.3.17 / Dynamic Range Meter 1.1.1
log date: 2018-08-29 13:39:51

--------------------------------------------------------------------------------
Analyzed: George Benson / Breezin'  (MFSL 1-011)
--------------------------------------------------------------------------------

DR         Peak         RMS     Duration Track
--------------------------------------------------------------------------------
DR14      -0.31 dB   -17.47 dB      5:41 01-Breezin'
DR16      -0.32 dB   -20.02 dB      8:03 02-This Masquerade
DR14      -2.10 dB   -18.96 dB      5:12 03-Six To Four
DR14      -0.25 dB   -17.18 dB      6:59 04-Affirmation
DR14      -0.41 dB   -16.80 dB      7:04 05-So This Is Love?
DR15      -1.27 dB   -19.38 dB      5:57 06-Lady
--------------------------------------------------------------------------------

Number of tracks:  6
Official DR value: DR15

Samplerate:        44100 Hz
Channels:          2
Bits per sample:   16
Bitrate:           756 kbps
Codec:             FLAC
================================================================================




Create a new paste based on this one


Comments: