[ create a new paste ] login | about

Link: http://codepad.org/3w2uZM8U    [ raw code | fork ]

Plain Text, pasted on Nov 12:
Exact Audio Copy V0.99 prebeta 5 from 4. May 2009

Отчёт EAC об извлечении, выполненном 22. октября 2011, 19:41

The Lightning Seeds / The Very Best of The Lightning Seeds

Дисковод: Optiarc DVD RW AD-5240S   Adapter: 3  ID: 1

Режим чтения                 : Достоверность
Использование точного потока : Да
Отключение кэша аудио        : Да
Использование указателей C2  : Нет

Коррекция смещения при чтении                     : 48
Способность читать области Lead-in и Lead-out     : Нет
Заполнение пропущенных сэмплов тишиной            : Да
Удаление блоков с тишиной в начале и конце        : Нет
При вычислениях CRC использовались нулевые сэмплы : Да
Интерфейс                                         : Встроенный Win32-интерфейс для Win NT/2000
Обработка зазоров                                 : Добавлено к предыдущему треку

Выходной формат          : Пользовательский кодировщик
Выбранный битрейт        : 768 kBit/s
Качество                 : Высокий
Добавление ID3-тэга      : Нет
Утилита сжатия           : L:\программы\Exact Audio Copy\FLAC\FLAC.EXE
Дополнительные параметры : -6 -V -T "ARTIST=%a" -T "TITLE=%t" -T "ALBUM=%g" -T "DATE=%y" -T "TRACKNUMBER=%n" -T "GENRE=%m" -T "COMMENT=%e" %s -o %d


TOC извлечённого CD

     Трек |   Старт  | Длительность | Начальный сектор | Конечный сектор 
    ---------------------------------------------------------------------
       1  |  0:00.00 |    4:19.33   |           0      |      19457      
       2  |  4:19.33 |    4:03.40   |       19458      |      37722      
       3  |  8:22.73 |    4:00.66   |       37723      |      55788      
       4  | 12:23.64 |    3:55.34   |       55789      |      73447      
       5  | 16:19.23 |    4:00.59   |       73448      |      91506      
       6  | 20:20.07 |    3:48.23   |       91507      |     108629      
       7  | 24:08.30 |    2:54.28   |      108630      |     121707      
       8  | 27:02.58 |    4:07.15   |      121708      |     140247      
       9  | 31:09.73 |    3:44.68   |      140248      |     157115      
      10  | 34:54.66 |    3:50.50   |      157116      |     174415      
      11  | 38:45.41 |    3:47.25   |      174416      |     191465      
      12  | 42:32.66 |    3:05.08   |      191466      |     205348      
      13  | 45:37.74 |    3:22.01   |      205349      |     220499      
      14  | 49:00.00 |    4:53.58   |      220500      |     242532      
      15  | 53:53.58 |    3:28.74   |      242533      |     258206      
      16  | 57:22.57 |    4:23.13   |      258207      |     277944      
      17  | 61:45.70 |    3:24.60   |      277945      |     293304      
      18  | 65:10.55 |    4:06.27   |      293305      |     311781      
      19  | 69:17.07 |    5:33.13   |      311782      |     336769      
      20  | 74:50.20 |    3:58.72   |      336770      |     354691      


Трек  1

     Имя файла L:\Новая папка\01. The Lightning Seeds - Lucky You.wav

     Длина предзазора  0:00:02.00

     Пиковый уровень 94.4 %
     Качество трека 100.0 %
     CRC теста A519160E
     CRC копии A519160E
     Точное извлечение (достоверность 8)  [CDFBE9CE]
     Копирование... OK

Трек  2

     Имя файла L:\Новая папка\02. The Lightning Seeds - The Life of Riley.wav

     Пиковый уровень 94.4 %
     Качество трека 100.0 %
     CRC теста 8FD636BD
     CRC копии 8FD636BD
     Точное извлечение (достоверность 8)  [44E07F93]
     Копирование... OK

Трек  3

     Имя файла L:\Новая папка\03. The Lightning Seeds - Change.wav

     Длина предзазора  0:00:01.14

     Пиковый уровень 100.0 %
     Качество трека 100.0 %
     CRC теста D1341720
     CRC копии D1341720
     Точное извлечение (достоверность 8)  [B763687B]
     Копирование... OK

Трек  4

     Имя файла L:\Новая папка\04. The Lightning Seeds - Feeling Lazy.wav

     Длина предзазора  0:00:01.34

     Пиковый уровень 100.0 %
     Качество трека 99.9 %
     CRC теста 691A6C93
     CRC копии 691A6C93
     Точное извлечение (достоверность 8)  [FC778E5E]
     Копирование... OK

Трек  5

     Имя файла L:\Новая папка\05. The Lightning Seeds - Life's To Short.wav

     Длина предзазора  0:00:01.05

     Пиковый уровень 100.0 %
     Качество трека 100.0 %
     CRC теста 45C0BF7C
     CRC копии 45C0BF7C
     Точное извлечение (достоверность 8)  [DACDCFA0]
     Копирование... OK

Трек  6

     Имя файла L:\Новая папка\06. The Lightning Seeds - Pure.wav

     Длина предзазора  0:00:00.59

     Пиковый уровень 100.0 %
     Качество трека 100.0 %
     CRC теста 3718073C
     CRC копии 3718073C
     Точное извлечение (достоверность 8)  [A1D4736E]
     Копирование... OK

Трек  7

     Имя файла L:\Новая папка\07. The Lightning Seeds - Song For No One.wav

     Длина предзазора  0:00:01.31

     Пиковый уровень 94.4 %
     Качество трека 100.0 %
     CRC теста 251CD844
     CRC копии 251CD844
     Точное извлечение (достоверность 8)  [EC0E4A0D]
     Копирование... OK

Трек  8

     Имя файла L:\Новая папка\08. The Lightning Seeds - You Showed Me.wav

     Длина предзазора  0:00:00.65

     Пиковый уровень 99.5 %
     Качество трека 100.0 %
     CRC теста 2795D9CB
     CRC копии 2795D9CB
     Точное извлечение (достоверность 8)  [B5538D17]
     Копирование... OK

Трек  9

     Имя файла L:\Новая папка\09. The Lightning Seeds - Be My Baby.wav

     Длина предзазора  0:00:00.60

     Пиковый уровень 97.7 %
     Качество трека 100.0 %
     CRC теста B8942614
     CRC копии B8942614
     Точное извлечение (достоверность 8)  [4DC9E9AE]
     Копирование... OK

Трек 10

     Имя файла L:\Новая папка\10. The Lightning Seeds - Sugar Coated Iceberg.wav

     Длина предзазора  0:00:01.12

     Пиковый уровень 94.0 %
     Качество трека 100.0 %
     CRC теста 25224011
     CRC копии 25224011
     Точное извлечение (достоверность 8)  [87D4C084]
     Копирование... OK

Трек 11

     Имя файла L:\Новая папка\11. The Lightning Seeds - Ready Or Not.wav

     Пиковый уровень 96.1 %
     Качество трека 100.0 %
     CRC теста B9A8F2B3
     CRC копии B9A8F2B3
     Точное извлечение (достоверность 8)  [5E374D0D]
     Копирование... OK

Трек 12

     Имя файла L:\Новая папка\12. The Lightning Seeds - Lucifer Sam.wav

     Длина предзазора  0:00:00.73

     Пиковый уровень 100.0 %
     Качество трека 100.0 %
     CRC теста 7BDAF1B5
     CRC копии 7BDAF1B5
     Точное извлечение (достоверность 8)  [AD79D847]
     Копирование... OK

Трек 13

     Имя файла L:\Новая папка\13. The Lightning Seeds - What If.....wav

     Длина предзазора  0:00:00.28

     Пиковый уровень 96.0 %
     Качество трека 100.0 %
     CRC теста 92C36B5B
     CRC копии 92C36B5B
     Точное извлечение (достоверность 8)  [231EE2EE]
     Копирование... OK

Трек 14

     Имя файла L:\Новая папка\14. The Lightning Seeds - If Only.wav

     Длина предзазора  0:00:01.13

     Пиковый уровень 94.4 %
     Качество трека 100.0 %
     CRC теста 6AF1364D
     CRC копии 6AF1364D
     Точное извлечение (достоверность 8)  [F4E42603]
     Копирование... OK

Трек 15

     Имя файла L:\Новая папка\15. The Lightning Seeds - Perfect.wav

     Длина предзазора  0:00:01.09

     Пиковый уровень 100.0 %
     Качество трека 100.0 %
     CRC теста 9B05C732
     CRC копии 9B05C732
     Точное извлечение (достоверность 8)  [C88323ED]
     Копирование... OK

Трек 16

     Имя файла L:\Новая папка\16. The Lightning Seeds - What You Say.wav

     Длина предзазора  0:00:01.06

     Пиковый уровень 100.0 %
     Качество трека 100.0 %
     CRC теста 8CF29F3D
     CRC копии 8CF29F3D
     Точное извлечение (достоверность 8)  [B37CA65A]
     Копирование... OK

Трек 17

     Имя файла L:\Новая папка\17. The Lightning Seeds - Tables Have Turned.wav

     Длина предзазора  0:00:01.39

     Пиковый уровень 92.2 %
     Качество трека 100.0 %
     CRC теста 36C95943
     CRC копии 36C95943
     Точное извлечение (достоверность 8)  [CFC44D52]
     Копирование... OK

Трек 18

     Имя файла L:\Новая папка\18. The Lightning Seeds - Sense.wav

     Длина предзазора  0:00:01.03

     Пиковый уровень 92.2 %
     Качество трека 99.9 %
     CRC теста CE63E4EB
     CRC копии CE63E4EB
     Точное извлечение (достоверность 8)  [299D559A]
     Копирование... OK

Трек 19

     Имя файла L:\Новая папка\19. The Lightning Seeds - Marvellous.wav

     Пиковый уровень 100.0 %
     Качество трека 100.0 %
     CRC теста EE9A2091
     CRC копии EE9A2091
     Точное извлечение (достоверность 8)  [AC56B76F]
     Копирование... OK

Трек 20

     Имя файла L:\Новая папка\20. The Lightning Seeds - Three Lions.wav

     Длина предзазора  0:00:02.45

     Пиковый уровень 96.1 %
     Качество трека 100.0 %
     CRC теста F10B4A2D
     CRC копии F10B4A2D
     Точное извлечение (достоверность 8)  [4647D372]
     Копирование... OK


Все треки извлечены точно

Ошибок не произошло

Конец отчёта



Create a new paste based on this one


Comments: