[ create a new paste ] login | about

Link: http://codepad.org/3xQzBfjE    [ raw code | fork ]

Plain Text, pasted on Dec 16:
Exact Audio Copy V1.0 beta 3 from 29. August 2011

EAC extraction logfile from 20. May 2014, 22:20

Various Artists / Pure... 50s CD4

Used drive  : PIONEER BD-RW   BDR-206   Adapter: 5  ID: 0

Read mode               : Secure
Utilize accurate stream : Yes
Defeat audio cache      : Yes
Make use of C2 pointers : No

Read offset correction                      : 667
Overread into Lead-In and Lead-Out          : No
Fill up missing offset samples with silence : Yes
Delete leading and trailing silent blocks   : No
Null samples used in CRC calculations       : Yes
Used interface                              : Native Win32 interface for Win NT & 2000

Used output format              : User Defined Encoder
Selected bitrate                : 1024 kBit/s
Quality                         : High
Add ID3 tag                     : No
Command line compressor         : C:\Program Files (x86)\Exact Audio Copy\Flac\flac.exe
Additional command line options : -8 -V -T "ARTIST=%artist%" -T "TITLE=%title%" -T "ALBUM=%albumtitle%" -T "DATE=%year%" -T "TRACKNUMBER=%tracknr%" -T "GENRE=%genre%" -T "COMMENT=%comment%" -T "BAND=%albuminterpret%" -T "ALBUMARTIST=%albuminterpret%" -T "COMPOSER=%composer%" %haslyrics%--tag-from-file=LYRICS="%lyricsfile%"%haslyrics% -T "DISCNUMBER=%cdnumber%" -T "TOTALDISCS=%totalcds%" -T "TOTALTRACKS=%numtracks%" %hascover%--picture="%coverfile%"%hascover% %source% -o %dest%


TOC of the extracted CD

     Track |   Start  |  Length  | Start sector | End sector 
    ---------------------------------------------------------
        1  |  0:00.00 |  3:06.73 |         0    |    14022   
        2  |  3:06.73 |  3:03.07 |     14023    |    27754   
        3  |  6:10.05 |  2:15.53 |     27755    |    37932   
        4  |  8:25.58 |  2:16.46 |     37933    |    48178   
        5  | 10:42.29 |  2:30.22 |     48179    |    59450   
        6  | 13:12.51 |  3:03.63 |     59451    |    73238   
        7  | 16:16.39 |  2:30.47 |     73239    |    84535   
        8  | 18:47.11 |  3:02.29 |     84536    |    98214   
        9  | 21:49.40 |  4:23.36 |     98215    |   117975   
       10  | 26:13.01 |  2:22.38 |    117976    |   128663   
       11  | 28:35.39 |  2:24.56 |    128664    |   139519   
       12  | 31:00.20 |  3:16.72 |    139520    |   154291   
       13  | 34:17.17 |  4:45.50 |    154292    |   175716   
       14  | 39:02.67 |  3:00.25 |    175717    |   189241   
       15  | 42:03.17 |  2:50.40 |    189242    |   202031   
       16  | 44:53.57 |  2:42.20 |    202032    |   214201   
       17  | 47:36.02 |  2:18.07 |    214202    |   224558   


Range status and errors

Selected range

     Filename D:\Сборники (Flac)\VA - Pure... 50s (2012) 4CD (Flac+cue)\CD4\Various Artists - Pure... 50s CD4.wav

     Peak level 98.8 %
     Extraction speed 4.6 X
     Range quality 100.0 %
     Test CRC 802CBE31
     Copy CRC 802CBE31
     Copy OK

No errors occurred

 
AccurateRip summary
 
Track  1  cannot be verified as accurate (confidence 1)  [9DCB40DF], AccurateRip returned [511290B7]  (AR v2)
Track  2  cannot be verified as accurate (confidence 1)  [462BE573], AccurateRip returned [32EDDEFD]  (AR v2)
Track  3  cannot be verified as accurate (confidence 1)  [5F4F9447], AccurateRip returned [83321C41]  (AR v2)
Track  4  cannot be verified as accurate (confidence 1)  [AB03F7DA], AccurateRip returned [C4135DDA]  (AR v2)
Track  5  cannot be verified as accurate (confidence 1)  [923036D4], AccurateRip returned [224EBD39]  (AR v2)
Track  6  cannot be verified as accurate (confidence 1)  [8D39DE71], AccurateRip returned [047C6F8C]  (AR v2)
Track  7  cannot be verified as accurate (confidence 1)  [F86A5D5C], AccurateRip returned [CF15163A]  (AR v2)
Track  8  cannot be verified as accurate (confidence 1)  [4BD6CBB9], AccurateRip returned [8901B202]  (AR v2)
Track  9  cannot be verified as accurate (confidence 1)  [C7877833], AccurateRip returned [24BBE1BA]  (AR v2)
Track 10  cannot be verified as accurate (confidence 1)  [B573C7B4], AccurateRip returned [DF0F004B]  (AR v2)
Track 11  cannot be verified as accurate (confidence 1)  [B5EE6A30], AccurateRip returned [935C531A]  (AR v2)
Track 12  cannot be verified as accurate (confidence 1)  [150147C0], AccurateRip returned [D58ED2CB]  (AR v2)
Track 13  cannot be verified as accurate (confidence 1)  [60AD3736], AccurateRip returned [DBD3841C]  (AR v2)
Track 14  cannot be verified as accurate (confidence 1)  [4ED4C31C], AccurateRip returned [6229F5A7]  (AR v2)
Track 15  cannot be verified as accurate (confidence 1)  [C6137EA9], AccurateRip returned [809FDE30]  (AR v2)
Track 16  cannot be verified as accurate (confidence 1)  [E4A588C3], AccurateRip returned [9E8189B1]  (AR v2)
Track 17  cannot be verified as accurate (confidence 1)  [E218FD33], AccurateRip returned [BF66F163]  (AR v2)
 
No tracks could be verified as accurate
You may have a different pressing from the one(s) in the database

End of status report

---- CUETools DB Plugin V2.1.3

[CTDB TOCID: R12Kr6.zwdbPCjqsxIb.2b.eaFc-] found, Submit result: R12Kr6.zwdbPCjqsxIb.2b.eaFc- has been submitted
[40d9426b] (4/4) Differs in 26 samples @08:23:46-08:23:47
You can use CUETools to repair this rip.


==== Log checksum A71BC79EDA274B7C114A87A6D6E275FC96A95927A3CA0BD583EBF304630A0A5E ====



Create a new paste based on this one


Comments: