[ create a new paste ] login | about

Link: http://codepad.org/3ztn76W9    [ raw code | fork ]

Plain Text, pasted on Nov 1:
foobar2000 1.4.6 / Dynamic Range Meter 1.1.1
log date: 2019-10-31 16:49:36

--------------------------------------------------------------------------------
Analyzed: Freddie Mercury / Never Boring BD
--------------------------------------------------------------------------------

DR         Peak         RMS     Duration Track
--------------------------------------------------------------------------------
DR7        0.00 dB    -8.79 dB      4:15 01-Made In Heaven
DR6       -0.10 dB    -8.30 dB      3:27 02-The Great Pretender
DR8        0.00 dB   -10.03 dB      3:12 03-Living On My Own
DR6       -0.01 dB   -10.31 dB      4:31 04-Barcelona
DR7        0.00 dB    -8.72 dB      3:40 05-I Was Born To Love You
DR9       -0.15 dB   -12.48 dB      3:31 06-Time Waits For Nobody
DR7       -0.10 dB    -9.24 dB      4:00 07-In My Defence
DR9       -0.10 dB   -10.12 dB      3:46 08-Living On My Own (Radio Mix)
DR7       -0.10 dB    -9.77 dB      6:03 09-The Golden Boy (La Nit Performance)
DR6       -0.10 dB    -7.32 dB      3:49 10-How Can I Go On (La Nit Performance)
DR6       -0.10 dB   -10.20 dB      5:50 11-Barcelona (La Nit Performance)
DR18      -0.10 dB   -19.35 dB      3:38 12-Freddie Mercury & Dave Clark 'Time' Interview (1986)
DR8       -0.21 dB   -10.89 dB      5:55 13-The Great Pretender (Extended Version)
DR6       -0.10 dB   -10.42 dB      5:20 14-Barcelona (Ku Klub Performance)
--------------------------------------------------------------------------------

Number of tracks:  14
Official DR value: DR8

Samplerate:        48000 Hz
Channels:          2
Bits per sample:   24
Bitrate:           1674 kbps
Codec:             FLAC
================================================================================




Create a new paste based on this one


Comments: