[ create a new paste ] login | about

Link: http://codepad.org/40BIWeIz    [ raw code | fork ]

Plain Text, pasted on Nov 20:
Exact Audio Copy V1.3 from 2. September 2016

EAC extraction logfile from 11. November 2018, 8:11

The Kinks / The Kinks Are The Village Green Preservation Society CD5

Used drive  : PLEXTOR BD-R  PX-B950SA   Adapter: 1  ID: 1

Read mode               : Secure
Utilize accurate stream : Yes
Defeat audio cache      : Yes
Make use of C2 pointers : No

Read offset correction                      : 6
Overread into Lead-In and Lead-Out          : No
Fill up missing offset samples with silence : Yes
Delete leading and trailing silent blocks   : No
Null samples used in CRC calculations       : Yes
Used interface                              : Native Win32 interface for Win NT & 2000

Used output format : Internal WAV Routines
Sample format      : 44.100 Hz; 16 Bit; Stereo


TOC of the extracted CD

     Track |   Start  |  Length  | Start sector | End sector 
    ---------------------------------------------------------
        1  |  0:00.00 |  8:23.26 |         0    |    37750   
        2  |  8:23.26 |  2:55.22 |     37751    |    50897   
        3  | 11:18.48 |  2:26.66 |     50898    |    61913   
        4  | 13:45.39 |  2:57.59 |     61914    |    75247   
        5  | 16:43.23 |  2:31.69 |     75248    |    86641   
        6  | 19:15.17 |  2:52.24 |     86642    |    99565   
        7  | 22:07.41 |  2:59.26 |     99566    |   113016   
        8  | 25:06.67 |  2:34.52 |    113017    |   124618   
        9  | 27:41.44 |  3:02.36 |    124619    |   138304   
       10  | 30:44.05 |  2:11.12 |    138305    |   148141   
       11  | 32:55.17 |  3:09.09 |    148142    |   162325   
       12  | 36:04.26 |  5:10.14 |    162326    |   185589   
       13  | 41:14.40 |  1:51.36 |    185590    |   193950   
       14  | 43:06.01 |  4:04.47 |    193951    |   212297   
       15  | 47:10.48 |  0:38.00 |    212298    |   215147   
       16  | 47:48.48 |  3:07.27 |    215148    |   229199   
       17  | 50:56.00 |  2:30.48 |    229200    |   240497   
       18  | 53:26.48 |  3:00.44 |    240498    |   254041   
       19  | 56:27.17 |  3:34.25 |    254042    |   270116   
       20  | 60:01.42 |  2:11.30 |    270117    |   279971   
       21  | 62:12.72 |  2:29.13 |    279972    |   291159   
       22  | 64:42.10 |  2:27.40 |    291160    |   302224   


Range status and errors

Selected range

     Filename C:\The Kinks\1968 The Village Green Preservation Society (11-Disc Box Set BMG 2018)\CD5 Preservation, Sessions, Live & Demos\The Kinks - The Village Green CD5.wav

     Peak level 98.8 %
     Extraction speed 7.5 X
     Range quality 100.0 %
     Test CRC 0078F9D3
     Copy CRC 0078F9D3
     Copy OK

No errors occurred

 
AccurateRip summary
 
Track  1  not present in database
Track  2  not present in database
Track  3  not present in database
Track  4  not present in database
Track  5  not present in database
Track  6  not present in database
Track  7  not present in database
Track  8  not present in database
Track  9  not present in database
Track 10  not present in database
Track 11  not present in database
Track 12  not present in database
Track 13  not present in database
Track 14  not present in database
Track 15  not present in database
Track 16  not present in database
Track 17  not present in database
Track 18  not present in database
Track 19  not present in database
Track 20  not present in database
Track 21  not present in database
Track 22  not present in database
 
None of the tracks are present in the AccurateRip database

End of status report

---- CUETools DB Plugin V2.1.6

[CTDB TOCID: kiMmWzRSVvs3e72rjYfEiIKT1sg-] found
Submit result: kiMmWzRSVvs3e72rjYfEiIKT1sg- has been confirmed
Track | CTDB Status
  1   | (17/17) Accurately ripped
  2   | (17/17) Accurately ripped
  3   | (17/17) Accurately ripped
  4   | (17/17) Accurately ripped
  5   | (17/17) Accurately ripped
  6   | (17/17) Accurately ripped
  7   | (17/17) Accurately ripped
  8   | (17/17) Accurately ripped
  9   | (17/17) Accurately ripped
 10   | (17/17) Accurately ripped
 11   | (17/17) Accurately ripped
 12   | (17/17) Accurately ripped
 13   | (17/17) Accurately ripped
 14   | (17/17) Accurately ripped
 15   | (17/17) Accurately ripped
 16   | (17/17) Accurately ripped
 17   | (17/17) Accurately ripped
 18   | (17/17) Accurately ripped
 19   | (17/17) Accurately ripped
 20   | (17/17) Accurately ripped
 21   | (17/17) Accurately ripped
 22   | (17/17) Accurately ripped


==== Log checksum 65A7316964DDAE7CB54FCDE8254537C6703783ED89F2455F43E60B131B73B15C ====



Create a new paste based on this one


Comments: