[ create a new paste ] login | about

Link: http://codepad.org/44A2kjvI    [ raw code | fork ]

Plain Text, pasted on Dec 18:
foobar2000 1.6 / Dynamic Range Meter 1.1.1
log date: 2020-12-18 23:51:55

--------------------------------------------------------------------------------
Analyzed: JOHNNY MATHIS / THE CHRISTMAS ALBUM
--------------------------------------------------------------------------------

DR         Peak         RMS     Duration Track
--------------------------------------------------------------------------------
DR11      -2.33 dB   -17.00 dB      2:00 01-Joy To The World
DR12      -1.81 dB   -18.38 dB      3:29 02-Heavenly Peace
DR11      -2.77 dB   -19.38 dB      2:30 03-Away In A Manger
DR11      -2.88 dB   -18.27 dB      3:35 04-A Christmas Love Song
DR12      -1.07 dB   -16.38 dB      2:32 05-Frosty The Snowman
DR13      -0.01 dB   -15.63 dB      2:00 06-Have A Holly Jolly Christmas
DR11      -7.06 dB   -21.53 dB      2:44 07-O Little Town Of Bethlehem
DR13      -0.35 dB   -16.00 dB      3:33 08-I've Got My Love To Keep Me Warm
DR13      -1.99 dB   -19.68 dB      5:00 09-Snowfall / Christmas Time Is Here
DR11      -5.08 dB   -20.06 dB      3:11 10-Merry Christmas
--------------------------------------------------------------------------------

Number of tracks:  10
Official DR value: DR12

Samplerate:        88200 Hz
Channels:          2
Bits per sample:   24
Bitrate:           2441 kbps
Codec:             FLAC
================================================================================




Create a new paste based on this one


Comments: