[ create a new paste ] login | about

Link: http://codepad.org/456Rweqv    [ raw code | fork ]

Plain Text, pasted on Jun 6:
foobar2000 1.4.4 / Dynamic Range Meter 1.1.1
log date: 2019-06-06 11:06:01

--------------------------------------------------------------------------------
Analyzed: VARIOUS ARTISTS / THE ULTIMATE COLLECTION VOLUME I
--------------------------------------------------------------------------------

DR         Peak         RMS     Duration Track
--------------------------------------------------------------------------------
DR11      -4.91 dB   -18.51 dB      4:00 01-That's The Way It Is
DR13      -5.02 dB   -22.68 dB      2:49 02-Constipated Duck
DR12      -5.04 dB   -20.25 dB      3:28 03-Gratitude
DR14      -5.20 dB   -23.90 dB      7:28 04-Perfect Sense (Parts I & II)
DR13      -5.17 dB   -21.18 dB      4:41 05-Line 'Em Up
--------------------------------------------------------------------------------

Number of tracks:  5
Official DR value: DR12

Samplerate:        2822400 Hz / PCM Samplerate: 176400 Hz
Channels:          6
Bits per sample:   1
Bitrate:           16934 kbps
Codec:             DST64
================================================================================

--------------------------------------------------------------------------------
Analyzed: VARIOUS ARTISTS / THE ULTIMATE COLLECTION VOLUME I
--------------------------------------------------------------------------------

DR         Peak         RMS     Duration Track
--------------------------------------------------------------------------------
DR8       -4.77 dB   -15.60 dB      3:59 01-That's The Way It Is
DR12      -4.54 dB   -18.62 dB      2:48 02-Constipated Duck
DR11      -5.32 dB   -18.49 dB      3:28 03-Gratitude
DR11      -4.15 dB   -19.33 dB      7:31 04-Perfect Sense (Parts I & II)
DR11      -5.38 dB   -18.98 dB      4:42 05-Line 'Em Up
DR8       -6.83 dB   -17.21 dB      4:20 06-Drops Of Jupiter
DR6       -5.47 dB   -13.12 dB      3:58 07-Let's Get Loud
DR11      -3.62 dB   -18.49 dB      5:21 08-Black Magic Woman
DR6       -5.66 dB   -13.52 dB      4:41 09-She Bangs
DR11      -4.71 dB   -18.12 dB      4:24 10-Strawberry Moon
--------------------------------------------------------------------------------

Number of tracks:  10
Official DR value: DR10

Samplerate:        2822400 Hz / PCM Samplerate: 176400 Hz
Channels:          2
Bits per sample:   1
Bitrate:           5645 kbps
Codec:             DSD64
================================================================================


foobar2000 1.4.4 / Dynamic Range Meter 1.1.1
log date: 2019-06-06 11:13:31

--------------------------------------------------------------------------------
Analyzed: VARIOUS ARTISTS / THE ULTIMATE COLLECTION VOLUME II
--------------------------------------------------------------------------------

DR         Peak         RMS     Duration Track
--------------------------------------------------------------------------------
DR15      -5.24 dB   -27.68 dB     12:30 01-Mozart: Allegro from Concerto In D Major For Violin And Piano, K. Anh. 56 (315f)
DR15      -5.44 dB   -28.06 dB      2:29 02-New York, New York (From "On The Town")
DR15     -11.48 dB   -33.13 dB      9:22 03-So What
--------------------------------------------------------------------------------

Number of tracks:  3
Official DR value: DR15

Samplerate:        2822400 Hz / PCM Samplerate: 176400 Hz
Channels:          5
Bits per sample:   1
Bitrate:           14112 kbps
Codec:             DST64
================================================================================

--------------------------------------------------------------------------------
Analyzed: VARIOUS ARTISTS / THE ULTIMATE COLLECTION VOLUME II
--------------------------------------------------------------------------------

DR         Peak         RMS     Duration Track
--------------------------------------------------------------------------------
DR15      -5.42 dB   -26.00 dB     12:29 01-Mozart: Allegro from Concerto In D Major For Violin And Piano, K. Anh. 56 (315f)
DR15      -5.51 dB   -26.13 dB      2:27 02-New York, New York (From "On The Town")
DR14      -7.87 dB   -28.90 dB      9:22 03-So What
DR14     -11.96 dB   -31.23 dB      4:19 04-Appalachia Waltz
DR13      -6.32 dB   -24.25 dB      8:36 05-Mozart: Concerto For Piano And Orchestra No. 27 In B-flat Major, K. 595 - III. Rondo: Allegro
DR13      -9.57 dB   -26.60 dB      6:11 06-Fasch: Concerto For Trumpet, Oboes, Strings And Continuo In D Major - I. Allegro II. Largo III. Allegro moderato
DR14      -5.22 dB   -22.11 dB      6:28 07-Watermelon Man
DR16      -6.05 dB   -24.53 dB      3:24 08-Violets For Your Furs
DR13      -8.72 dB   -23.42 dB      4:00 09-'Aint Misbehavin'
DR16      -6.58 dB   -26.55 dB      6:44 10-You're A Sweetheart
--------------------------------------------------------------------------------

Number of tracks:  10
Official DR value: DR14

Samplerate:        2822400 Hz / PCM Samplerate: 176400 Hz
Channels:          2
Bits per sample:   1
Bitrate:           5645 kbps
Codec:             DSD64
================================================================================




Create a new paste based on this one


Comments: