[ create a new paste ] login | about

Link: http://codepad.org/45T4za38    [ raw code | fork ]

Plain Text, pasted on Dec 5:
[CUETools log; Date: 12/4/2016 3:42:05 PM; Version: 2.1.5]
[CTDB TOCID: .Prx3hc4Fz48pMdxwJL7DwTG4KU-] found.
Track | CTDB Status
  1   | (273/279) Accurately ripped
  2   | (271/279) Accurately ripped
  3   | (273/279) Accurately ripped
  4   | (272/279) Accurately ripped
  5   | (274/279) Accurately ripped
  6   | (275/279) Accurately ripped
  7   | (275/279) Accurately ripped
  8   | (274/279) Accurately ripped
  9   | (271/279) Accurately ripped
 10   | (272/279) Accurately ripped
 11   | (273/279) Accurately ripped
[AccurateRip ID: 00144716-00af0e7e-7e0bf00b] found.
Track   [  CRC   |   V2   ] Status
 01     [722e1799|6a9d9747] (000+005/332) Accurately ripped
 02     [060487f4|1c0600eb] (000+005/334) Accurately ripped
 03     [3bc5de7d|d0c75fbf] (000+005/335) Accurately ripped
 04     [1c213ed9|e17041bb] (000+005/335) Accurately ripped
 05     [f0be091c|814d3818] (000+005/335) Accurately ripped
 06     [c89d6553|10f74357] (000+005/335) Accurately ripped
 07     [fc2061d1|302b507e] (000+005/337) Accurately ripped
 08     [a60111d0|e8e164ce] (000+005/334) Accurately ripped
 09     [afb23b14|dc4b6a19] (000+005/335) Accurately ripped
 10     [884c4d52|b2f1a2f7] (000+005/334) Accurately ripped
 11     [5d3177cd|5e19db96] (000+005/330) Accurately ripped
Offsetted by -6:
 01     [9deab154] (154/332) Accurately ripped
 02     [3782bebb] (156/334) Accurately ripped
 03     [30de3cb9] (156/335) Accurately ripped
 04     [31b9a3df] (156/335) Accurately ripped
 05     [da560375] (156/335) Accurately ripped
 06     [3e741a2a] (157/335) Accurately ripped
 07     [c1395352] (158/337) Accurately ripped
 08     [4974fb3f] (155/334) Accurately ripped
 09     [b6526aa0] (155/335) Accurately ripped
 10     [6f15cf59] (155/334) Accurately ripped
 11     [ef918f5c] (152/330) Accurately ripped

Track Peak [ CRC32  ] [W/O NULL] [  LOG   ]
 --  100.0 [89C6A426] [060F0271]   CRC32   
 01   97.7 [2FFAECD9] [8F6E87FC]           
 02   99.9 [5EBE04BA] [5719E19C]           
 03  100.0 [D9A90C6C] [8D6DBFE6]           
 04  100.0 [867DA83D] [CD480727]           
 05   97.7 [9311FD43] [B756D47F]           
 06   97.9 [9B219477] [466CE6D7]           
 07  100.0 [2C2DB886] [A40FB7DE]           
 08   97.7 [121EF52E] [2C2CE3FC]           
 09   97.7 [42F79DC6] [E9B25CC7]           
 10   99.5 [8F33EE1B] [CFACBD0A]           
 11   97.7 [EB3D01EE] [7DA6E4B6]           



Create a new paste based on this one


Comments: