[ create a new paste ] login | about

Link: http://codepad.org/45naCxSk    [ raw code | fork ]

Plain Text, pasted on Dec 27:
foobar2000 1.6 / Dynamic Range Meter 1.1.1
log date: 2020-12-27 19:14:46

--------------------------------------------------------------------------------
Analyzed: John Martino's Romantic Jazz Trio / The Beatles In Jazz
--------------------------------------------------------------------------------

DR         Peak         RMS     Duration Track
--------------------------------------------------------------------------------
DR8       -0.23 dB   -10.64 dB      4:32 01-The Fool On The Hill
DR8       -0.28 dB   -10.86 dB      4:04 02-Let It Be
DR9       -0.25 dB   -11.77 dB      4:29 03-Because
DR9       -0.14 dB   -10.24 dB      4:13 04-Fixing A Hole
DR10      -0.18 dB   -12.70 dB      4:15 05-In My Life
DR7       -0.34 dB    -9.46 dB      4:17 06-Norwegian Wood
DR8       -0.01 dB   -10.08 dB      4:50 07-Come Together
DR8       -0.13 dB    -9.83 dB      6:09 08-Penny Lane
DR8       -0.28 dB   -11.29 dB      3:19 09-Blackbird
DR8       -0.10 dB    -9.45 dB      4:07 10-Eleanor Rigby
DR9       -0.24 dB   -11.21 dB      4:45 11-Yesterday
DR8       -0.31 dB    -9.57 dB      5:51 12-Got To Get You Into My Life
DR8       -0.24 dB   -10.15 dB      4:54 13-Here, There And Everywhere
--------------------------------------------------------------------------------

Number of tracks:  13
Official DR value: DR8

Samplerate:        88200 Hz
Channels:          2
Bits per sample:   24
Bitrate:           2497 kbps
Codec:             FLAC
================================================================================




Create a new paste based on this one


Comments: