[ create a new paste ] login | about

Link: http://codepad.org/460au4qg    [ raw code | fork ]

Plain Text, pasted on Nov 26:
Exact Audio Copy V1.0 beta 3 from 29. August 2011

EAC extraction logfile from 4. December 2013, 22:19

The Who / Tommy CD3 - The Live Bootleg Album

Used drive  : ATAPI   iHAS124   B   Adapter: 2  ID: 0

Read mode               : Secure
Utilize accurate stream : Yes
Defeat audio cache      : Yes
Make use of C2 pointers : No

Read offset correction                      : 6
Overread into Lead-In and Lead-Out          : No
Fill up missing offset samples with silence : Yes
Delete leading and trailing silent blocks   : No
Null samples used in CRC calculations       : Yes
Used interface                              : Native Win32 interface for Win NT & 2000

Used output format              : User Defined Encoder
Selected bitrate                : 1024 kBit/s
Quality                         : High
Add ID3 tag                     : No
Command line compressor         : C:\Program Files (x86)\Exact Audio Copy\FLAC\FLAC.EXE
Additional command line options : -8 -V -T "ARTIST=%artist%" -T "TITLE=%title%" -T "ALBUM=%albumtitle%" -T "DATE=%year%" -T "TRACKNUMBER=%tracknr%" -T "GENRE=%genre%" -T "PERFORMER=%albuminterpret%" -T "COMPOSER=%composer%" %haslyrics%--tag-from-file=LYRICS="%lyricsfile%"%haslyrics% -T "ALBUMARTIST=%albumartist%" -T "DISCNUMBER=%cdnumber%" -T "TOTALDISCS=%totalcds%" -T "TOTALTRACKS=%numtracks%" -T "COMMENT=%comment%" %source% -o %dest%


TOC of the extracted CD

     Track |   Start  |  Length  | Start sector | End sector 
    ---------------------------------------------------------
        1  |  0:00.00 |  7:01.55 |         0    |    31629   
        2  |  7:01.55 |  0:39.68 |     31630    |    34622   
        3  |  7:41.48 |  2:28.70 |     34623    |    45792   
        4  | 10:10.43 |  5:07.53 |     45793    |    68870   
        5  | 15:18.21 |  2:49.31 |     68871    |    81576   
        6  | 18:07.52 |  1:54.53 |     81577    |    90179   
        7  | 20:02.30 |  3:11.37 |     90180    |   104541   
        8  | 23:13.67 |  3:30.33 |    104542    |   120324   
        9  | 26:44.25 |  2:47.25 |    120325    |   132874   
       10  | 29:31.50 |  0:21.41 |    132875    |   134490   
       11  | 29:53.16 |  1:12.47 |    134491    |   139937   
       12  | 31:05.63 |  0:55.39 |    139938    |   144101   
       13  | 32:01.27 |  0:24.12 |    144102    |   145913   
       14  | 32:25.39 |  3:22.40 |    145914    |   161103   
       15  | 35:48.04 |  1:10.67 |    161104    |   166420   
       16  | 36:58.71 |  0:12.13 |    166421    |   167333   
       17  | 37:11.09 |  4:01.70 |    167334    |   185478   
       18  | 41:13.04 |  2:12.05 |    185479    |   195383   
       19  | 43:25.09 |  0:48.00 |    195384    |   198983   
       20  | 44:13.09 |  3:28.58 |    198984    |   214641   
       21  | 47:41.67 |  7:53.60 |    214642    |   250176   


Range status and errors

Selected range

     Filename D:\CD\The Who - Tommy CD3.wav

     Peak level 99.9 %
     Extraction speed 5.7 X
     Range quality 100.0 %
     Test CRC D45E89AE
     Copy CRC D45E89AE
     Copy OK

No errors occurred

 
AccurateRip summary
 
Track  1  accurately ripped (confidence 5)  [7C2A9E22]  (AR v2)
Track  2  accurately ripped (confidence 5)  [F85EE0CB]  (AR v2)
Track  3  accurately ripped (confidence 5)  [E3274B35]  (AR v2)
Track  4  accurately ripped (confidence 5)  [86C1B421]  (AR v2)
Track  5  accurately ripped (confidence 5)  [E26E1EC7]  (AR v2)
Track  6  accurately ripped (confidence 5)  [6AA920CE]  (AR v2)
Track  7  accurately ripped (confidence 5)  [0B4628A6]  (AR v2)
Track  8  accurately ripped (confidence 5)  [F9B11B9F]  (AR v2)
Track  9  accurately ripped (confidence 5)  [29FCA640]  (AR v2)
Track 10  accurately ripped (confidence 5)  [AEFCA4B7]  (AR v2)
Track 11  accurately ripped (confidence 5)  [4F02F0E8]  (AR v2)
Track 12  accurately ripped (confidence 5)  [E0C91DFD]  (AR v2)
Track 13  accurately ripped (confidence 5)  [03098222]  (AR v2)
Track 14  accurately ripped (confidence 5)  [76E75D32]  (AR v2)
Track 15  accurately ripped (confidence 5)  [C1F5CD0D]  (AR v2)
Track 16  accurately ripped (confidence 5)  [9C229E63]  (AR v2)
Track 17  accurately ripped (confidence 5)  [CEA33667]  (AR v2)
Track 18  accurately ripped (confidence 5)  [62EBA97E]  (AR v2)
Track 19  accurately ripped (confidence 5)  [4A01816D]  (AR v2)
Track 20  accurately ripped (confidence 5)  [28EE5652]  (AR v2)
Track 21  accurately ripped (confidence 5)  [407B18DC]  (AR v2)
 
All tracks accurately ripped

End of status report

==== Log checksum FF1ED753C12B23B481F001B2D7981D1C06699A832494BE37E3761CCD2F365C2E ====



Create a new paste based on this one


Comments: