[ create a new paste ] login | about

Link: http://codepad.org/46nJ43Zo    [ raw code | fork ]

Plain Text, pasted on Aug 27:
[CUETools log; Date: 8/20/2018 11:45:25 AM; Version: 2.1.5]
[CTDB TOCID: QmcAFOwBUXOGXxDskotFHA6dhc8-] found.
Track | CTDB Status
  1   | (55/56) Accurately ripped
  2   | (55/56) Accurately ripped
  3   | (55/56) Accurately ripped
  4   | (55/56) Accurately ripped
  5   | (54/56) Accurately ripped
  6   | (55/56) Accurately ripped
  7   | (55/56) Accurately ripped
  8   | (55/56) Accurately ripped
  9   | (55/56) Accurately ripped
 10   | (54/56) Accurately ripped
 11   | (54/56) Accurately ripped
 12   | (55/56) Accurately ripped
 13   | (55/56) Accurately ripped
 14   | (54/56) Accurately ripped
 15   | (54/56) Accurately ripped
 16   | (55/56) Accurately ripped
 17   | (55/56) Accurately ripped
 18   | (55/56) Accurately ripped
 19   | (55/56) Accurately ripped
 20   | (55/56) Accurately ripped
[AccurateRip ID: 00243b74-0214cf5a-120bde14] found.
Track   [  CRC   |   V2   ] Status
 01     [9fe7e344|8ca5ad54] (04+13/20) Accurately ripped
 02     [ca21ef0d|1f9619cd] (04+12/19) Accurately ripped
 03     [547c89e5|f9e04e30] (04+12/19) Accurately ripped
 04     [188e94e3|06346cf2] (04+11/18) Accurately ripped
 05     [a3c9c1e8|e22f7c56] (04+11/18) Accurately ripped
 06     [ae1082e4|1bb8d3b3] (04+12/19) Accurately ripped
 07     [6d72eb71|36df4060] (04+12/19) Accurately ripped
 08     [e0f74263|62be7b4e] (04+11/18) Accurately ripped
 09     [6a6a45bd|c7492675] (04+12/19) Accurately ripped
 10     [25065f18|d5c7d833] (04+12/19) Accurately ripped
 11     [f0705f0f|bca4ff23] (04+12/19) Accurately ripped
 12     [3930ab2f|506f4ea5] (04+11/18) Accurately ripped
 13     [71d4ba4c|8b52d0dc] (04+11/18) Accurately ripped
 14     [6de70fdf|68fba5f7] (04+11/18) Accurately ripped
 15     [74947de0|f49efb60] (04+12/19) Accurately ripped
 16     [af2f1baf|c9c7edc7] (04+12/19) Accurately ripped
 17     [3cf0f0bd|d859737d] (04+11/18) Accurately ripped
 18     [078e33bf|315d54a3] (04+12/19) Accurately ripped
 19     [01839ec3|c386f37a] (04+11/18) Accurately ripped
 20     [1fbe7581|f3d35ec2] (04+12/19) Accurately ripped
Offsetted by 757:
 01     [55e7f64f] (00/20) No match (V2 was not tested)
 02     [4dd4f200] (00/19) No match (V2 was not tested)
 03     [eccba4c3] (00/19) No match (V2 was not tested)
 04     [9e1c82b0] (00/18) No match (V2 was not tested)
 05     [eccf9d3e] (00/18) No match (V2 was not tested)
 06     [ec0f6ee5] (00/19) No match (V2 was not tested)
 07     [db4f1136] (00/19) No match (V2 was not tested)
 08     [3c74c179] (00/18) No match (V2 was not tested)
 09     [a04eee11] (00/19) No match (V2 was not tested)
 10     [38424ea0] (00/19) No match (V2 was not tested)
 11     [9a560152] (00/19) No match (V2 was not tested)
 12     [bee7fad4] (00/18) No match (V2 was not tested)
 13     [fb6c9e8d] (00/18) No match (V2 was not tested)
 14     [300a3419] (00/18) No match (V2 was not tested)
 15     [4850bf93] (00/19) No match (V2 was not tested)
 16     [8c64ce5a] (00/19) No match (V2 was not tested)
 17     [107eb992] (00/18) No match (V2 was not tested)
 18     [55698f81] (00/19) No match (V2 was not tested)
 19     [a2affc37] (00/18) No match (V2 was not tested)
 20     [b6019a48] (00/19) No match (V2 was not tested)

Track Peak [ CRC32  ] [W/O NULL] [  LOG   ]
 --  100.0 [1FDE7F79] [84FA1D86]           
 01   90.9 [DE91D71D] [DF275917]   CRC32   
 02   57.6 [BBB156CB] [A6E2C523]   CRC32   
 03   87.0 [895BCC80] [279750B4]   CRC32   
 04   69.8 [3541A4E1] [BA5D8A72]   CRC32   
 05  100.0 [CA9F36B0] [0DCBDD8C]   CRC32   
 06   70.3 [A2E8DF8C] [2B24FB06]   CRC32   
 07   97.0 [E61D4AC2] [D7DC2A68]   CRC32   
 08   87.4 [FD6E8D51] [22201A86]   CRC32   
 09  100.0 [00A7CAD9] [353CBFEC]   CRC32   
 10   82.2 [DC350C8B] [05AC4FE5]   CRC32   
 11   91.1 [48AC1695] [9AD6D1F3]   CRC32   
 12   93.5 [1E3A8F9E] [95D79221]   CRC32   
 13   74.0 [31719F98] [5107C6FB]   CRC32   
 14   66.1 [DE62696D] [59EF0B8B]   CRC32   
 15   93.1 [5008BF03] [340FE265]   CRC32   
 16   97.6 [EF16B6BB] [9C81559B]   CRC32   
 17   99.9 [E07132E8] [9BA1C893]   CRC32   
 18   73.4 [6611CCA6] [B301264C]   CRC32   
 19   93.6 [C269E026] [7CDAD675]   CRC32   
 20   89.0 [4D3AA165] [D40FBD4C]   CRC32   



Create a new paste based on this one


Comments: