[ create a new paste ] login | about

Link: http://codepad.org/4CHk30U8    [ raw code | fork ]

Plain Text, pasted on Mar 21:
[CUETools log; Date: 3/21/2016 1:13:05 AM; Version: 2.1.5]
[CTDB TOCID: ISBvHpGNZYSx7qLJUWSNljsErU0-] found.
Track | CTDB Status
  1   | (10/12) Accurately ripped, or (2/12) differs in 6 samples @00:16:42
  2   | (12/12) Accurately ripped
  3   | (12/12) Accurately ripped
  4   | (12/12) Accurately ripped
  5   | (12/12) Accurately ripped
  6   | (12/12) Accurately ripped
  7   | (12/12) Accurately ripped
  8   | (12/12) Accurately ripped
[AccurateRip ID: 000ba73f-004e792e-6b091a08] found.
Track   [  CRC   |   V2   ] Status
 01     [689bab49|950a85d7] (08+49/63) Accurately ripped
 02     [539a1ac0|746a1183] (08+49/63) Accurately ripped
 03     [d78580d2|459be0e7] (07+48/61) Accurately ripped
 04     [446f877e|703ba2c5] (08+47/61) Accurately ripped
 05     [118d0651|8dd7a588] (07+48/61) Accurately ripped
 06     [2f50718f|73c455ac] (07+49/62) Accurately ripped
 07     [ff1e13af|feebf78d] (07+49/62) Accurately ripped
 08     [60155a9c|e82e9377] (07+49/62) Accurately ripped
Offsetted by -54:
 01     [7204ed29] (00/63) No match (V2 was not tested)
 02     [b83041be] (00/63) No match (V2 was not tested)
 03     [c4cdf188] (00/61) No match (V2 was not tested)
 04     [5c0327dc] (00/61) No match (V2 was not tested)
 05     [9f318be9] (00/61) No match (V2 was not tested)
 06     [8d5eec9b] (00/62) No match (V2 was not tested)
 07     [b8d6c9e5] (00/62) No match (V2 was not tested)
 08     [71022b26] (00/62) No match (V2 was not tested)

Track Peak [ CRC32  ] [W/O NULL] [  LOG   ]
 --   97.7 [FD498510] [4E8B2CEA]   CRC32   
 01   93.5 [BAF51F41] [131047E2]           
 02   90.9 [E729F3E0] [93D5473A]           
 03   88.0 [E375AB26] [B43AE087]           
 04   96.5 [958EC94F] [B49DB171]           
 05   96.5 [A411AB52] [8387AF98]           
 06   93.2 [17BD6939] [0273D11E]           
 07   97.7 [5E8A564B] [B8C5C985]           
 08   95.8 [34834606] [8741CE83]           



Create a new paste based on this one


Comments: