[ create a new paste ] login | about

Link: http://codepad.org/4Ecn9cYf    [ raw code | fork ]

Plain Text, pasted on Mar 21:
X Lossless Decoder version 20120226 (139.1)

XLD extraction logfile from 2012-03-04 20:46:22 +0100

Bad Company / Bad Company

Used drive : MATSHITA DVD-R   UJ-898 (revision HC09)

Ripper mode             : XLD Secure Ripper
Disable audio cache     : OK for the drive with a cache less than 1375KiB
Make use of C2 pointers : NO
Read offset correction  : 102
Max retry count         : 20
Gap status              : Analyzed, Appended (except HTOA)

TOC of the extracted CD
     Track |   Start  |  Length  | Start sector | End sector 
    ---------------------------------------------------------
        1  | 00:00:00 | 04:16:50 |         0    |    19249   
        2  | 04:16:50 | 03:50:52 |     19250    |    36551   
        3  | 08:07:27 | 05:01:35 |     36552    |    59161   
        4  | 13:08:62 | 04:23:63 |     59162    |    78949   
        5  | 17:32:50 | 04:48:52 |     78950    |   100601   
        6  | 22:21:27 | 05:15:35 |    100602    |   124261   
        7  | 27:36:62 | 03:27:18 |    124262    |   139804   
        8  | 31:04:05 | 04:05:45 |    139805    |   158224   

List of alternate offset correction values
        #  | Absolute | Relative | Confidence 
    ------------------------------------------
        1  |     84   |    -18   |      4     
        2  |     24   |    -78   |      2     
        3  |     90   |    -12   |      2     

AccurateRip Summary
    Track 01 : OK (AR2, confidence 9)
    Track 02 : OK (AR2, confidence 9)
    Track 03 : OK (AR2, confidence 9)
    Track 04 : OK (AR2, confidence 9)
    Track 05 : OK (AR2, confidence 10)
    Track 06 : OK (AR2, confidence 9)
    Track 07 : OK (AR2, confidence 9)
    Track 08 : OK (AR2, confidence 9)
        ->All tracks accurately ripped.

All Tracks
    Album gain             : -3.13 dB
    Peak                   : 1.000000
    Statistics
        Read error                           : 0
        Jitter error (maybe fixed)           : 0
        Retry sector count                   : 0
        Damaged sector count                 : 0

Track 01
    Filename : /Users/majorflac/Bad Company - Bad Company (1974) [FLAC] /01 Can't Get Enough.flac
    Pre-gap length : 00:02:00

    Track gain             : -3.44 dB
    Peak                   : 1.000000
    CRC32 hash (test run)  : 82FE85BA
    CRC32 hash             : 82FE85BA
    CRC32 hash (skip zero) : 57AFB804
    AccurateRip signature  : 589A51C1
        ->Accurately ripped! (AR2, confidence 9)
    Statistics
        Read error                           : 0
        Jitter error (maybe fixed)           : 0
        Retry sector count                   : 0
        Damaged sector count                 : 0

Track 02
    Filename : /Users/majorflac/Bad Company - Bad Company (1974) [FLAC] /02 Rock Steady.flac

    Track gain             : -3.08 dB
    Peak                   : 0.999969
    CRC32 hash (test run)  : AB4C1718
    CRC32 hash             : AB4C1718
    CRC32 hash (skip zero) : 89209F94
    AccurateRip signature  : E3BA4178
        ->Accurately ripped! (AR2, confidence 9)
    Statistics
        Read error                           : 0
        Jitter error (maybe fixed)           : 0
        Retry sector count                   : 0
        Damaged sector count                 : 0

Track 03
    Filename : /Users/majorflac/Bad Company - Bad Company (1974) [FLAC] /03 Ready For Love.flac

    Track gain             : -3.27 dB
    Peak                   : 1.000000
    CRC32 hash (test run)  : 558065CD
    CRC32 hash             : 558065CD
    CRC32 hash (skip zero) : 29332F40
    AccurateRip signature  : 1A69933B
        ->Accurately ripped! (AR2, confidence 9)
    Statistics
        Read error                           : 0
        Jitter error (maybe fixed)           : 0
        Retry sector count                   : 0
        Damaged sector count                 : 0

Track 04
    Filename : /Users/majorflac/Bad Company - Bad Company (1974) [FLAC] /04 Don't Let Me Down.flac

    Track gain             : -2.85 dB
    Peak                   : 1.000000
    CRC32 hash (test run)  : 8CD22D5E
    CRC32 hash             : 8CD22D5E
    CRC32 hash (skip zero) : 0DD418D9
    AccurateRip signature  : 4C7FD0D7
        ->Accurately ripped! (AR2, confidence 9)
    Statistics
        Read error                           : 0
        Jitter error (maybe fixed)           : 0
        Retry sector count                   : 0
        Damaged sector count                 : 0

Track 05
    Filename : /Users/majorflac/Bad Company - Bad Company (1974) [FLAC] /05 Bad Company.flac
    Pre-gap length : 00:04:40

    Track gain             : -3.70 dB
    Peak                   : 1.000000
    CRC32 hash (test run)  : F393502E
    CRC32 hash             : F393502E
    CRC32 hash (skip zero) : 8F79881C
    AccurateRip signature  : 37C6828F
        ->Accurately ripped! (AR2, confidence 10)
    Statistics
        Read error                           : 0
        Jitter error (maybe fixed)           : 0
        Retry sector count                   : 0
        Damaged sector count                 : 0

Track 06
    Filename : /Users/majorflac/Bad Company - Bad Company (1974) [FLAC] /06 The Way I Choose.flac

    Track gain             : 0.05 dB
    Peak                   : 0.997772
    CRC32 hash (test run)  : 4B05FBE3
    CRC32 hash             : 4B05FBE3
    CRC32 hash (skip zero) : E234B8A4
    AccurateRip signature  : 0F78658A
        ->Accurately ripped! (AR2, confidence 9)
    Statistics
        Read error                           : 0
        Jitter error (maybe fixed)           : 0
        Retry sector count                   : 0
        Damaged sector count                 : 0

Track 07
    Filename : /Users/majorflac/Bad Company - Bad Company (1974) [FLAC] /07 Movin' On.flac

    Track gain             : -4.32 dB
    Peak                   : 0.965454
    CRC32 hash (test run)  : CAE7BCD0
    CRC32 hash             : CAE7BCD0
    CRC32 hash (skip zero) : B2537DF5
    AccurateRip signature  : 0F963B53
        ->Accurately ripped! (AR2, confidence 9)
    Statistics
        Read error                           : 0
        Jitter error (maybe fixed)           : 0
        Retry sector count                   : 0
        Damaged sector count                 : 0

Track 08
    Filename : /Users/majorflac/Bad Company - Bad Company (1974) [FLAC] /08 Seagull.flac

    Track gain             : -1.06 dB
    Peak                   : 0.999969
    CRC32 hash (test run)  : 263A603B
    CRC32 hash             : 263A603B
    CRC32 hash (skip zero) : 8DBFE63B
    AccurateRip signature  : 86F05DF2
        ->Accurately ripped! (AR2, confidence 9)
    Statistics
        Read error                           : 0
        Jitter error (maybe fixed)           : 0
        Retry sector count                   : 0
        Damaged sector count                 : 0

No errors occurred

End of status report



Create a new paste based on this one


Comments: