[ create a new paste ] login | about

Link: http://codepad.org/4GWFMzD1    [ raw code | fork ]

Plain Text, pasted on Sep 12:
foobar2000 1.3.10 / Dynamic Range Meter 1.1.1
log date: 2016-09-11 17:45:04

--------------------------------------------------------------------------------
Analyzed: Sting / ... Nothing Like The Sun (Gold CD)
--------------------------------------------------------------------------------

DR         Peak         RMS     Duration Track
--------------------------------------------------------------------------------
DR16      -2.24 dB   -20.12 dB      4:36 01-The Lazarus Heart
DR17      -2.00 dB   -22.89 dB      5:34 02-Be Still My Beating Heart
DR17      -2.08 dB   -21.69 dB      4:27 03-Englishman In New York
DR16      -2.05 dB   -19.89 dB      5:01 04-History Will Teach Us Nothing
DR16      -2.00 dB   -20.94 dB      7:15 05-They Dance Alone (Gueca Solo)
DR13      -2.19 dB   -21.11 dB      3:57 06-Fragile
DR8       -7.20 dB   -17.70 dB      4:55 07-We'll Be Together
DR16      -1.00 dB   -19.08 dB      3:55 08-Straight To My Heart
DR14      -3.17 dB   -19.34 dB      4:29 09-Rock Steady
DR12      -6.75 dB   -23.39 dB      3:47 10-Sister Moon
DR21       0.00 dB   -24.31 dB      5:10 11-Little Wing
DR13     -12.86 dB   -29.27 dB      2:05 12-The Secret Marriage
--------------------------------------------------------------------------------

Number of tracks:  12
Official DR value: DR15

Samplerate:        44100 Hz
Channels:          2
Bits per sample:   16
Bitrate:           501 kbps
Codec:             FLAC
================================================================================




Create a new paste based on this one


Comments: