[ create a new paste ] login | about

Link: http://codepad.org/4GmCdQi2    [ raw code | fork ]

Plain Text, pasted on Nov 4:
Exact Audio Copy V1.0 beta 3 from 29. August 2011

Отчёт EAC об извлечении, выполненном 30. октября 2016, 14:06

Katie Melua / In Winter

Дисковод: PLEXTOR DVDR   PX-755A   Adapter: 0  ID: 0

Режим чтения                 : Достоверность
Использование точного потока : Да
Отключение кэша аудио        : Да
Использование указателей C2  : Нет

Коррекция смещения при чтении                     : 30
Способность читать области Lead-in и Lead-out     : Нет
Заполнение пропущенных сэмплов тишиной            : Да
Удаление блоков с тишиной в начале и конце        : Нет
При вычислениях CRC использовались нулевые сэмплы : Да
Интерфейс                                         : Встроенный Win32-интерфейс для Win NT/2000

Выходной формат          : Пользовательский кодировщик
Выбранный битрейт        : 1024 kBit/s
Качество                 : Высокий
Добавление ID3-тега      : Нет
Утилита сжатия           : C:\Program Files (x86)\Exact Audio Copy\Flac\flac.exe
Дополнительные параметры : -V -8 -T "Date=%year%" -T "Genre=%genre%" %source%


TOC извлечённого CD

     Трек |   Старт  | Длительность | Начальный сектор | Конечный сектор 
    ---------------------------------------------------------------------
       1  |  0:00.00 |    1:46.37   |           0      |       7986      
       2  |  1:46.37 |    3:25.38   |        7987      |      23399      
       3  |  5:12.00 |    4:24.37   |       23400      |      43236      
       4  |  9:36.37 |    1:43.38   |       43237      |      50999      
       5  | 11:20.00 |    3:31.37   |       51000      |      66861      
       6  | 14:51.37 |    4:07.38   |       66862      |      85424      
       7  | 18:59.00 |    3:43.37   |       85425      |     102186      
       8  | 22:42.37 |    4:05.38   |      102187      |     120599      
       9  | 26:48.00 |    4:15.37   |      120600      |     139761      
      10  | 31:03.37 |    4:23.38   |      139762      |     159524      


Характеристики диапазона извлечения и сообщения об ошибках

Выбранный диапазон

     Имя файла E:\РАЗДАЧА\Katie Melua - In Winter\Katie Melua - In Winter.wav

     Пиковый уровень 96.3 %
     Скорость извлечения 7.4 X
     Качество диапазона 100.0 %
     CRC теста C1C84C84
     CRC копии C1C84C84
     Копирование... OK

Ошибок не произошло

 
AccurateRip: сводка
 
Трек  1  отсутствует в базе данных
Трек  2  отсутствует в базе данных
Трек  3  отсутствует в базе данных
Трек  4  отсутствует в базе данных
Трек  5  отсутствует в базе данных
Трек  6  отсутствует в базе данных
Трек  7  отсутствует в базе данных
Трек  8  отсутствует в базе данных
Трек  9  отсутствует в базе данных
Трек 10  отсутствует в базе данных
 
Ни одного трека нет в базе AccurateRip

Конец отчёта



Create a new paste based on this one


Comments: