[ create a new paste ] login | about

Link: http://codepad.org/4KkpraNI    [ raw code | fork ]

Plain Text, pasted on Apr 9:
foobar2000 1.3.17 / Dynamic Range Meter 1.1.1
log date: 2018-04-09 11:53:53

--------------------------------------------------------------------------------
Analyzed: The Cecil Holmes Soulful Sounds / The Black Motion Picture Experience & Music for Soulful Lovers
--------------------------------------------------------------------------------

DR         Peak         RMS     Duration Track
--------------------------------------------------------------------------------
DR12      -0.94 dB   -16.31 dB      2:28 01-Across 110th Street
DR12      -2.66 dB   -16.52 dB      2:20 02-Slaughter
DR12      -2.94 dB   -16.72 dB      3:23 03-Ben
DR12      -1.24 dB   -16.38 dB      2:51 04-Also Sprach Zarathusta
DR13      -1.59 dB   -17.14 dB      3:02 05-Superfly
DR12      -0.52 dB   -16.45 dB      5:56 06-Trouble Man T Stands For Trouble
DR14      -1.07 dB   -19.19 dB      4:45 07-Shaft
DR13      -2.57 dB   -17.37 dB      3:01 08-Love Theme From Lady Sings The Blues
DR13      -1.32 dB   -16.78 dB      2:57 09-Freddies Dead
DR14      -0.01 dB   -16.48 dB      4:01 10-Soulful Love
DR13      -0.63 dB   -16.20 dB      4:53 11-Im Gonna Love You Just A Little More Baby
DR14      -3.24 dB   -19.96 dB      4:05 12-Break Up To Make Up
DR13      -3.10 dB   -17.88 dB      3:11 13-You Are The Sunshine Of My Life
DR12      -2.52 dB   -18.03 dB      4:08 14-Neither One Of Us
DR12      -2.72 dB   -17.43 dB      3:56 15-Pillow Talk
DR12      -1.80 dB   -18.01 dB      4:52 16-Killing Me Softly With His Song
DR14      -0.88 dB   -18.10 dB      3:28 17-If You Dont Know Me By Now
DR13      -0.79 dB   -16.12 dB      3:16 18-Loving You Hurts So Bad
DR15      -1.48 dB   -18.57 dB      3:23 19-Call Me
DR13      -0.92 dB   -17.46 dB      3:09 20-Stay With Me
--------------------------------------------------------------------------------

Number of tracks:  20
Official DR value: DR13

Samplerate:        88200 Hz
Channels:          2
Bits per sample:   24
Bitrate:           2701 kbps
Codec:             FLAC
================================================================================




Create a new paste based on this one


Comments: