[ create a new paste ] login | about

Link: http://codepad.org/4QbX6zId    [ raw code | fork ]

Plain Text, pasted on Aug 13:
[CUETools log; Date: 8/12/2016 4:18:36 PM; Version: 2.1.5]
[CTDB TOCID: tehD05uMnyXP30jujbaDKiIUxiY-] disk not present in database.
[AccurateRip ID: 00113b78-00a79ff2-9209bd0c] found.
Track   [  CRC   |   V2   ] Status
 01     [dbce9794|cf8ec230] (0+1/2) Accurately ripped
 02     [5442b558|b61498dc] (0+1/2) Accurately ripped
 03     [eb3e4fe4|cbf33443] (0+1/2) Accurately ripped
 04     [ce9448e4|5f8d8006] (0+1/2) Accurately ripped
 05     [06b66672|272b9202] (0+1/2) Accurately ripped
 06     [54f6d8d8|fd9edad9] (0+1/2) Accurately ripped
 07     [62127d1c|6a74e868] (0+1/2) Accurately ripped
 08     [74e0b715|dbfd0d4e] (0+1/2) Accurately ripped
 09     [5eab2bf7|7d667bc5] (0+1/2) Accurately ripped
 10     [dcb89045|ae1c8227] (0+1/2) Accurately ripped
 11     [bbd0fccb|07eb5cf4] (0+1/2) Accurately ripped
 12     [82ec11dc|6f691542] (0+1/2) Accurately ripped

Track Peak [ CRC32  ] [W/O NULL] [  LOG   ]
 --   99.2 [EBF096E8] [7D7DDE66]   CRC32   
 01   92.6 [924B1351] [607F57F8]           
 02   98.3 [670A788B] [DCCF411A]           
 03   97.8 [17630B8C] [4C89B653]           
 04   98.1 [640DE397] [8580431C]           
 05   98.6 [FA0AA33D] [5F3ECD2A]           
 06   98.5 [5AB33019] [6C03D4DA]           
 07   98.4 [E69B5C39] [7E37C3C8]           
 08   98.4 [BC91ED39] [3528E9DD]           
 09   99.0 [36E2C412] [7E309656]           
 10   98.7 [635DF879] [1786436E]           
 11   99.2 [CBD182CD] [E70D568E]           
 12   98.8 [1AC9376D] [C057BAFB]           



Create a new paste based on this one


Comments: