[ create a new paste ] login | about

Link: http://codepad.org/4dC4uKnt    [ raw code | fork ]

Plain Text, pasted on Feb 5:
foobar2000 1.5 / Dynamic Range Meter 1.1.1
log date: 2020-02-05 21:58:17

--------------------------------------------------------------------------------
Analyzed: Claus Ogerman And His Orchestra / A Salute To Sam Cooke
--------------------------------------------------------------------------------

DR         Peak         RMS     Duration Track
--------------------------------------------------------------------------------
DR11      -0.02 dB   -13.19 dB      2:20 01-Shake
DR11      -0.02 dB   -13.39 dB      2:54 02-Little Red Rooster
DR12      -0.02 dB   -14.29 dB      2:16 03-Good Times
DR11      -0.02 dB   -13.69 dB      2:26 04-Send Me Some Lovin'
DR11      -0.02 dB   -13.51 dB      2:17 05-Twistin' The Night Away
DR12      -0.02 dB   -13.74 dB      2:33 06-Cupid
DR11      -0.02 dB   -12.79 dB      2:28 07-Somebody Have Mercy
DR11      -0.02 dB   -13.68 dB      2:54 08-Chain Gang
DR10      -0.02 dB   -12.81 dB      2:19 09-Another Saturday Night
DR13      -0.02 dB   -15.03 dB      2:33 10-Frankie And Johnny
DR12      -0.02 dB   -13.33 dB      2:27 11-Having A Party
DR11      -0.02 dB   -13.81 dB      2:19 12-He's A Cousin Of Mine
--------------------------------------------------------------------------------

Number of tracks:  12
Official DR value: DR11

Samplerate:        192000 Hz
Channels:          2
Bits per sample:   24
Bitrate:           5381 kbps
Codec:             FLAC
================================================================================




Create a new paste based on this one


Comments: