[ create a new paste ] login | about

Link: http://codepad.org/4eFv7WCk    [ raw code | fork ]

Plain Text, pasted on May 12:
foobar2000 1.3.14 / Dynamic Range Meter 1.1.1
log date: 2017-05-12 08:01:35

--------------------------------------------------------------------------------
Analyzed: Diana Krall / Turn Up The Quiet
--------------------------------------------------------------------------------

DR         Peak         RMS     Duration Track
--------------------------------------------------------------------------------
DR10      -0.02 dB   -12.53 dB      3:16 01-Like Someone In Love
DR12      -0.02 dB   -14.92 dB      4:29 02-Isn't It Romantic
DR11      -0.02 dB   -13.24 dB      4:21 03-L-O-V-E
DR11      -0.02 dB   -14.47 dB      4:39 04-Night And Day
DR11      -0.02 dB   -12.62 dB      3:24 05-I'm Confessin' (That I Love You)
DR14      -0.02 dB   -16.25 dB      5:15 06-Moonglow
DR11      -0.02 dB   -13.48 dB      4:39 07-Blue Skies
DR13      -0.02 dB   -15.94 dB      6:13 08-Sway
DR10      -0.02 dB   -13.38 dB      4:06 09-No Moon At All
DR13      -0.02 dB   -15.83 dB      4:05 10-Dream
DR11      -0.02 dB   -13.19 dB      3:51 11-I'll See You In My Dreams
--------------------------------------------------------------------------------

Number of tracks:  11
Official DR value: DR12

Samplerate:        192000 Hz
Channels:          2
Bits per sample:   24
Bitrate:           5740 kbps
Codec:             FLAC
================================================================================




Create a new paste based on this one


Comments: