[ create a new paste ] login | about

Link: http://codepad.org/4mcv4dQI    [ raw code | fork ]

Plain Text, pasted on Jun 7:
Exact Audio Copy V1.0 beta 3 from 29. August 2011

EAC extraction logfile from 2. February 2014, 17:29

John Mellencamp / Scarecrow

Used drive  : PLEXTOR BD-R  PX-B950SA   Adapter: 6  ID: 0

Read mode               : Secure
Utilize accurate stream : Yes
Defeat audio cache      : Yes
Make use of C2 pointers : No

Read offset correction                      : 6
Overread into Lead-In and Lead-Out          : No
Fill up missing offset samples with silence : Yes
Delete leading and trailing silent blocks   : No
Null samples used in CRC calculations       : Yes
Used interface                              : Native Win32 interface for Win NT & 2000

Used output format : Internal WAV Routines
Sample format      : 44.100 Hz; 16 Bit; Stereo


TOC of the extracted CD

     Track |   Start  |  Length  | Start sector | End sector 
    ---------------------------------------------------------
        1  |  0:00.00 |  3:46.17 |         0    |    16966   
        2  |  3:46.17 |  0:55.63 |     16967    |    21154   
        3  |  4:42.05 |  3:42.50 |     21155    |    37854   
        4  |  8:24.55 |  4:13.22 |     37855    |    56851   
        5  | 12:38.02 |  3:46.10 |     56852    |    73811   
        6  | 16:24.12 |  3:14.33 |     73812    |    88394   
        7  | 19:38.45 |  3:33.47 |     88395    |   104416   
        8  | 23:12.17 |  4:32.73 |    104417    |   124889   
        9  | 27:45.15 |  3:00.07 |    124890    |   138396   
       10  | 30:45.22 |  4:33.73 |    138397    |   158944   
       11  | 35:19.20 |  2:55.12 |    158945    |   172081   
       12  | 38:14.32 |  2:58.73 |    172082    |   185504   
       13  | 41:13.30 |  4:11.15 |    185505    |   204344   


Range status and errors

Selected range

     Filename C:\John Mellencamp\2013 John Mellencamp 1978-2012 (19CD Box Set Mercury Records)\1985 Scarecrow\John Mellencamp - Scarecrow.wav

     Peak level 99.8 %
     Extraction speed 7.6 X
     Range quality 100.0 %
     Test CRC E7D9FDAE
     Copy CRC E7D9FDAE
     Copy OK

No errors occurred

 
AccurateRip summary
 
Track  1  accurately ripped (confidence 59)  [10F97A80]  (AR v2)
Track  2  accurately ripped (confidence 58)  [624C03EC]  (AR v2)
Track  3  accurately ripped (confidence 59)  [CF161637]  (AR v2)
Track  4  accurately ripped (confidence 59)  [A6B4121C]  (AR v2)
Track  5  accurately ripped (confidence 58)  [7699C0F0]  (AR v2)
Track  6  accurately ripped (confidence 57)  [D6C5E2A1]  (AR v2)
Track  7  accurately ripped (confidence 57)  [15CE3F47]  (AR v2)
Track  8  accurately ripped (confidence 59)  [D0758E18]  (AR v2)
Track  9  accurately ripped (confidence 58)  [E80345A6]  (AR v2)
Track 10  accurately ripped (confidence 58)  [9B2F1BE6]  (AR v2)
Track 11  accurately ripped (confidence 58)  [C664F760]  (AR v2)
Track 12  accurately ripped (confidence 58)  [55D81BA0]  (AR v2)
Track 13  accurately ripped (confidence 58)  [96DE517F]  (AR v2)
 
All tracks accurately ripped

End of status report

==== Log checksum E3082B3057C0F3EDEF82DC23E5CEC4EACEF5BEF61153274055080CE08B12C32C ====



Create a new paste based on this one


Comments: