[ create a new paste ] login | about

Link: http://codepad.org/4uR1p9I8    [ raw code | fork ]

Plain Text, pasted on Mar 27:
foobar2000 1.2.8 / Dynamic Range Meter 1.1.1
log date: 2013-10-08 11:13:39

--------------------------------------------------------------------------------
Analyzed: Boston / Boston (2000 Remaster)
--------------------------------------------------------------------------------

DR         Peak         RMS     Duration Track
--------------------------------------------------------------------------------
DR10      -0.56 dB   -13.37 dB      4:45 01-More Than A Feeling
DR10      -1.21 dB   -13.19 dB      5:04 02-Peace Of Mind
DR10      -0.01 dB   -13.77 dB      7:48 03-Foreplay/Long Time
DR11      -0.64 dB   -13.95 dB      3:00 04-Rock & Roll Band
DR11      -1.97 dB   -14.68 dB      4:23 05-Smokin'
DR10      -0.53 dB   -13.59 dB      4:12 06-Hitch A Ride
DR10      -1.34 dB   -13.58 dB      3:48 07-Something About You
DR12      -0.55 dB   -15.41 dB      4:46 08-Let Me Take You Home Tonight
--------------------------------------------------------------------------------

Number of tracks:  8
Official DR value: DR10

Samplerate:        88200 Hz
Channels:          2
Bits per sample:   24
Bitrate:           2829 kbps
Codec:             FLAC
================================================================================




Create a new paste based on this one


Comments: