[ create a new paste ] login | about

Link: http://codepad.org/4vt6Ih9F    [ raw code | fork ]

Plain Text, pasted on Jan 10:
foobar2000 1.5 / Dynamic Range Meter 1.1.1
log date: 2020-01-10 07:57:41

--------------------------------------------------------------------------------
Analyzed: Marvin Gaye / What's Going On [2019 MoFi 45RPM One-Step - VM760SLC]
--------------------------------------------------------------------------------

DR         Peak         RMS     Duration Track
--------------------------------------------------------------------------------
DR13      -0.16 dB   -16.07 dB      3:53 01-What's Going On
DR11      -2.10 dB   -15.87 dB      2:43 02-What's Happening Brother
DR10      -3.76 dB   -16.16 dB      3:48 03-Flyin' High (In The Friendly Sky)
DR12      -1.46 dB   -16.68 dB      4:01 04-Save The Children
DR12      -2.32 dB   -14.81 dB      1:41 05-God Is Love
DR11      -1.78 dB   -15.46 dB      3:16 06-Mercy Mercy Me (The Ecology)
DR13      -1.58 dB   -16.88 dB      7:29 07-Right On
DR11      -2.98 dB   -17.67 dB      3:07 08-Wholy Holy
DR13      -0.91 dB   -16.40 dB      5:30 09-Inner City Blues (Make Me Wanna Holler)
--------------------------------------------------------------------------------

Number of tracks:  9
Official DR value: DR12

Samplerate:        44100 Hz
Channels:          2
Bits per sample:   16
Bitrate:           823 kbps
Codec:             FLAC
================================================================================




Create a new paste based on this one


Comments: