[ create a new paste ] login | about

Link: http://codepad.org/4wEFPqJ6    [ raw code | fork ]

Plain Text, pasted on Apr 13:
foobar2000 1.3 / Dynamic Range Meter 1.1.1
log date: 2015-05-27 11:22:06

--------------------------------------------------------------------------------
Analyzed: Rory Gallagher / Big Guns - The Very Best Of (Hybrid SACD - Disc 1)
--------------------------------------------------------------------------------

DR         Peak         RMS     Duration Track
--------------------------------------------------------------------------------
DR12      -1.00 dB   -13.25 dB      3:53 01-Big Guns
DR10      -1.20 dB   -14.67 dB      2:48 02-What's Going On
DR11      -1.03 dB   -14.78 dB      4:50 03-Tattoo'd Lady
DR12      -0.97 dB   -15.01 dB      3:57 04-Bad Penny
DR10      -1.04 dB   -13.54 dB      4:56 05-Shadow Play
DR11      -0.72 dB   -14.62 dB      4:52 06-Kickback City
DR11      -0.72 dB   -13.06 dB      4:05 07-Bourbon
DR10      -1.04 dB   -12.82 dB      5:48 08-Sinnerboy
DR11      -1.11 dB   -14.74 dB      5:15 09-Used To Be
DR13      -0.01 dB   -14.30 dB      4:57 10-Goin' To My Hometown
DR9       -0.96 dB   -13.41 dB      6:47 11-Bullfrog Blues
DR10      -0.89 dB   -13.23 dB      4:25 12-Messin' With The Kid
--------------------------------------------------------------------------------

Number of tracks:  12
Official DR value: DR11

Samplerate:        88200 Hz
Channels:          6
Bits per sample:   24
Bitrate:           7615 kbps
Codec:             FLAC
================================================================================


foobar2000 1.3 / Dynamic Range Meter 1.1.1
log date: 2015-05-27 11:23:10

--------------------------------------------------------------------------------
Analyzed: Rory Gallagher / Big Guns - The Very Best Of (Hybrid SACD - Disc 2)
--------------------------------------------------------------------------------

DR         Peak         RMS     Duration Track
--------------------------------------------------------------------------------
DR11      -0.01 dB   -15.29 dB      2:38 01-The Loop
DR12      -0.22 dB   -14.96 dB      4:16 02-Born On The Wrong Side Of Time
DR11      -0.19 dB   -14.66 dB      6:34 03-A Million Miles Away
DR13      -0.24 dB   -18.66 dB      5:23 04-Calling Card
DR13      -0.21 dB   -18.61 dB      3:48 05-Out On The Western Plain
DR10      -1.18 dB   -14.78 dB      5:20 06-Lonesome Highway
DR15      -0.93 dB   -17.11 dB      3:33 07-Just The Smile
DR11      -0.91 dB   -14.65 dB      5:40 08-I'm Not Awake Yet
DR9       -0.22 dB   -14.00 dB      6:02 09-Daughter Of The Everglades
DR11      -1.75 dB   -17.12 dB      4:24 10-I'll Admit You're Gone
DR12      -0.21 dB   -16.01 dB      3:38 11-The King Of Zydeco
DR11      -0.23 dB   -14.23 dB      4:07 12-They Don't Make Them Like You Anymore
--------------------------------------------------------------------------------

Number of tracks:  12
Official DR value: DR11

Samplerate:        88200 Hz
Channels:          6
Bits per sample:   24
Bitrate:           8012 kbps
Codec:             FLAC
================================================================================




Create a new paste based on this one


Comments: