[ create a new paste ] login | about

Link: http://codepad.org/4zZ7AixM    [ raw code | fork ]

Plain Text, pasted on Jan 22:
foobar2000 1.5 / Dynamic Range Meter 1.1.1
log date: 2020-01-22 18:08:51

--------------------------------------------------------------------------------
Analyzed: Alice Cooper / Welcome To My Nightmare
--------------------------------------------------------------------------------

DR         Peak         RMS     Duration Track
--------------------------------------------------------------------------------
DR13      -0.05 dB   -16.19 dB      5:16 01-Welcome To My Nightmare
DR13      -1.81 dB   -20.98 dB      3:35 02-Devil's Food
DR13      -2.06 dB   -18.21 dB      3:37 03-The Black Widow
DR13      -1.08 dB   -17.16 dB      4:16 04-Some Folks
DR13      -1.27 dB   -18.29 dB      5:47 05-Only Women Bleed
DR13      -0.05 dB   -15.35 dB      3:18 06-Department Of Youth
DR13      -0.67 dB   -15.00 dB      2:54 07-Cold Ethyl
DR14      -1.08 dB   -21.96 dB      2:51 08-Years Ago
DR13      -1.22 dB   -18.12 dB      5:47 09-Steven
DR14      -1.51 dB   -21.14 dB      2:27 10-The Awakening
DR13      -0.05 dB   -15.45 dB      3:16 11-Escape
--------------------------------------------------------------------------------

Number of tracks:  11
Official DR value: DR13

Samplerate:        96000 Hz
Channels:          2
Bits per sample:   24
Bitrate:           3024 kbps
Codec:             FLAC
================================================================================




Create a new paste based on this one


Comments: