[ create a new paste ] login | about

Link: http://codepad.org/4zoso8xk    [ raw code | fork ]

Plain Text, pasted on Apr 20:
foobar2000 1.3.17 / Dynamic Range Meter 1.1.1
log date: 2018-04-19 21:36:30

--------------------------------------------------------------------------------
Analyzed: ISAO TOMITA / Clair de Lune  Ultimate edition
--------------------------------------------------------------------------------

DR         Peak         RMS     Duration Track
--------------------------------------------------------------------------------
DR15      -6.11 dB   -24.80 dB      2:16 01-The Snow is Dancing
DR8      -14.37 dB   -35.47 dB      1:55 02-Whistle and Chime
DR6       -8.47 dB   -24.44 dB      4:04 03-Arebesque 1
DR7       -2.80 dB   -21.55 dB      5:56 04-Clair de Lune
DR8       -4.58 dB   -23.86 dB      4:06 05-Jardins sous la pluie
DR8       -4.16 dB   -24.44 dB      4:41 06-Des pas sur la neige
DR7       -3.43 dB   -20.94 dB      6:39 07-La cathedrale engloutie
DR11      -0.27 dB   -25.73 dB      3:35 08-Arebesque 2
DR8       -0.90 dB   -21.79 dB      4:49 09-Reverie
DR7       -3.53 dB   -21.58 dB      3:27 10-La fille aux cheveux de lin
DR7       -3.29 dB   -21.18 dB      3:22 11-Passepied
DR7       -0.64 dB   -20.02 dB      2:58 12-Golliwogg's Cakewalk
DR8       -4.89 dB   -22.81 dB      8:21 13-Nuages
--------------------------------------------------------------------------------

Number of tracks:  13
Official DR value: DR8

Samplerate:        88200 Hz
Channels:          6
Bits per sample:   24
Bitrate:           4824 kbps
Codec:             FLAC
================================================================================




Create a new paste based on this one


Comments: