[ create a new paste ] login | about

Link: http://codepad.org/5H5Ek3PO    [ raw code | fork ]

Plain Text, pasted on Jun 7:
Exact Audio Copy V0.99 prebeta 3 from 28. July 2007

EAC extraction logfile from 23. January 2008, 21:12

Various / New Wave Gold - Disc 1

Used drive  : _NEC    DVD_RW ND-3500AG   Adapter: 0  ID: 2

Read mode               : Secure
Utilize accurate stream : Yes
Defeat audio cache      : Yes
Make use of C2 pointers : No

Read offset correction                      : 48
Overread into Lead-In and Lead-Out          : No
Fill up missing offset samples with silence : Yes
Delete leading and trailing silent blocks   : No
Null samples used in CRC calculations       : Yes
Used interface                              : Installed external ASPI interface

Used output format : Internal WAV Routines
Sample format      : 44.100 Hz; 16 Bit; Stereo


TOC of the extracted CD

     Track |   Start  |  Length  | Start sector | End sector 
    ---------------------------------------------------------
        1  |  0:00.00 |  3:26.38 |         0    |    15487   
        2  |  3:26.38 |  3:42.44 |     15488    |    32181   
        3  |  7:09.07 |  3:27.28 |     32182    |    47734   
        4  | 10:36.35 |  2:32.38 |     47735    |    59172   
        5  | 13:08.73 |  3:21.60 |     59173    |    74307   
        6  | 16:30.58 |  3:44.29 |     74308    |    91136   
        7  | 20:15.12 |  4:10.18 |     91137    |   109904   
        8  | 24:25.30 |  5:13.12 |    109905    |   133391   
        9  | 29:38.42 |  3:31.19 |    133392    |   149235   
       10  | 33:09.61 |  3:59.00 |    149236    |   167160   
       11  | 37:08.61 |  3:16.70 |    167161    |   181930   
       12  | 40:25.56 |  3:27.07 |    181931    |   197462   
       13  | 43:52.63 |  3:14.73 |    197463    |   212085   
       14  | 47:07.61 |  2:41.37 |    212086    |   224197   
       15  | 49:49.23 |  3:58.18 |    224198    |   242065   


Range status and errors

Selected range

     Filename K:\Music\New Wave - Gold\Various - New Wave Gold - Disc 1.wav

     Peak level 99.9 %
     Range quality 100.0 %
     Copy CRC D752232C
     Copy OK

No errors occurred

End of status report



Create a new paste based on this one


Comments: