[ create a new paste ] login | about

Link: http://codepad.org/5JpLumou    [ raw code | fork ]

Plain Text, pasted on Oct 31:
foobar2000 1.3.17 / Dynamic Range Meter 1.1.1
log date: 2018-10-31 09:23:31

--------------------------------------------------------------------------------
Analyzed: Charles Aznavour / LA BOHEME
--------------------------------------------------------------------------------

DR         Peak         RMS     Duration Track
--------------------------------------------------------------------------------
DR11      -1.07 dB   -16.85 dB      4:10 01-La boheme
DR11      -1.15 dB   -17.09 dB      2:38 02-Aime moi
DR11      -2.72 dB   -17.97 dB      2:38 03-Quelque chose ou quelqu'un
DR12      -3.30 dB   -18.75 dB      3:17 04-Ca vient sans qu'on y pense
DR11      -2.30 dB   -17.41 dB      2:45 05-Plus rien
DR12      -3.38 dB   -19.41 dB      2:16 06-Il viendra ce jour
DR10      -0.51 dB   -15.52 dB      3:26 07-Paris au mois d'Ao√t
DR12      -0.32 dB   -16.65 dB      2:26 08-Sur le chemin du retour
DR11      -2.01 dB   -17.13 dB      2:20 09-Il fallait bien
DR13      -1.87 dB   -18.40 dB      3:12 10-Parce que tu crois
DR13      -1.47 dB   -18.15 dB      2:57 11-La route
DR11      -1.68 dB   -16.75 dB      2:14 12-Sarah
DR12      -0.32 dB   -19.19 dB      2:32 13-Je t'aime comme ca
DR13      -0.40 dB   -20.57 dB      3:43 14-Ay mourir pour toi
DR12      -0.52 dB   -19.61 dB      3:48 15-L'amour a fleur de coeur
DR12      -0.69 dB   -18.50 dB      2:11 16-C'est merveilleux l'amour
DR11      -0.01 dB   -17.62 dB      2:37 17-Jezebel
DR16      -0.38 dB   -20.23 dB      3:08 18-A propos de pommier
--------------------------------------------------------------------------------

Number of tracks:  18
Official DR value: DR12

Samplerate:        88200 Hz
Channels:          6
Bits per sample:   24
Bitrate:           7685 kbps
Codec:             FLAC
================================================================================




Create a new paste based on this one


Comments: